<?xml version="1.0" standalone="no"?>
<!DOCTYPE svg PUBLIC "-//W3C//DTD SVG 1.1//EN" "http://www.w3.org/Graphics/SVG/1.1/DTD/svg11.dtd" >
<svg xmlns="http://www.w3.org/2000/svg">
<metadata>Generated by IcoMoon</metadata>
<defs>
<font id="fa-regular" horiz-adv-x="1024">
<font-face units-per-em="1024" ascent="960" descent="-64" />
<missing-glyph horiz-adv-x="1024" />
<glyph unicode="&#x20;" horiz-adv-x="512" d="" />
<glyph unicode="&#xe900;" glyph-name="5" horiz-adv-x="640" d="M64.8 856.2c4 23 23.8 39.8 47.2 39.8h416c26.6 0 48-21.4 48-48s-21.4-48-48-48h-375.6l-47.4-272h271c145.8 0 264-118.2 264-264s-118.2-264-264-264h-191c-72.8 0-139.2 41-171.8 106.2l-8.2 16.4c-11.8 23.8-2.2 52.6 21.4 64.4s52.6 2.2 64.4-21.4l8.2-16.4c16.4-32.6 49.6-53.2 86-53.2h191c92.8 0 168 75.2 168 168s-75.2 168-168 168h-328c-14.2 0-27.6 6.2-36.8 17.2s-13 25-10.4 39l64 368z" />
<glyph unicode="&#xe901;" glyph-name="shrimp" d="M0 752c0 79.6 64.4 144 144 144h704c26.6 0 48-21.4 48-48s-21.4-48-48-48h-704c-26.6 0-48-21.4-48-48s21.4-48 48-48h528c194.4 0 352-157.6 352-352s-157.6-352-352-352h-176c-26.6 0-48 21.4-48 48 0 24 17.6 43.8 40.4 47.4l-9.8 3.8c-24.8 9.6-37 37.4-27.4 62.2s37.4 37 62.2 27.4l137.4-53.4c41-16 85.2 14.2 85.2 58.2 0 34.6-28 62.4-62.4 62.4h-154.6c-203 0-370 154.8-389.2 352.6-72.8 7.2-129.8 68.6-129.8 143.4zM928 352c0 18.6-2 36.8-5.8 54.4l-120.2-120.2c18.8-26 30-58 30-92.6 0-16.4-2.4-32-6.8-46.8 62.4 46.6 102.8 121.2 102.8 205.2zM880.6 500.4c-43.6 61-113.2 102.2-192.6 107v-256c12.4-1.2 24.4-3.6 36-7.6l156.6 156.6zM592 608h-365.4c19-144.4 142.8-256 292.4-256h73v256zM448 560c26.51 0 48-21.49 48-48s-21.49-48-48-48v0c-26.51 0-48 21.49-48 48s21.49 48 48 48v0z" />
<glyph unicode="&#xe902;" glyph-name="mailbox-flag-up" horiz-adv-x="1152" d="M752 512c-26.6 0-48 21.4-48 48v288c0 26.6 21.4 48 48 48h128c26.6 0 48-21.4 48-48v-64c0-26.6-21.4-48-48-48h-80v-176c0-26.6-21.4-48-48-48zM288 736c-106 0-192-86-192-192v-352c0-17.6 14.4-32 32-32h352v384c0 106-86 192-192 192zM502.6 736c45.6-51 73.4-118.2 73.4-192v-384h448c17.6 0 32 14.4 32 32v352c0 69.8-37.4 131-93.2 164.6 18.2 19.8 29.2 46.4 29.2 75.4v18c94.8-47.2 160-145 160-258v-352c0-70.6-57.4-128-128-128h-896c-70.6 0-128 57.4-128 128v352c0 159 129 288 288 288h352v-96h-137.4zM208 576h160c26.6 0 48-21.4 48-48s-21.4-48-48-48h-160c-26.6 0-48 21.4-48 48s21.4 48 48 48z" />
<glyph unicode="&#xe903;" glyph-name="tenge-sign" horiz-adv-x="768" d="M0 848c0 26.6 21.4 48 48 48h672c26.6 0 48-21.4 48-48s-21.4-48-48-48h-672c-26.6 0-48 21.4-48 48zM0 592c0 26.6 21.4 48 48 48h672c26.6 0 48-21.4 48-48s-21.4-48-48-48h-288v-496c0-26.6-21.4-48-48-48s-48 21.4-48 48v496h-288c-26.6 0-48 21.4-48 48z" />
<glyph unicode="&#xe904;" glyph-name="battery-low" horiz-adv-x="1152" d="M928 672c35.4 0 64-28.6 64-64v-320c0-35.4-28.6-64-64-64h-768c-35.4 0-64 28.6-64 64v320c0 35.4 28.6 64 64 64h768zM160 768c-88.4 0-160-71.6-160-160v-320c0-88.4 71.6-160 160-160h768c88.4 0 160 71.6 160 160v32c35.4 0 64 28.6 64 64v128c0 35.4-28.6 64-64 64v32c0 88.4-71.6 160-160 160h-768zM320 576h-128v-256h128v256z" />
<glyph unicode="&#xe905;" glyph-name="racquet" d="M698 864c63.8 0 122.2-21.8 165.2-64.8s64.8-101.6 64.8-165.2c0-81.2-35.4-169.8-105.8-240.2-128-128-309-137.4-405.4-41-43 43-64.8 101.6-64.8 165.2 0 81.2 35.4 169.8 105.8 240.2s159 105.8 240.2 105.8zM698 960c-108.4 0-221-46.8-308-133.8s-134-199.6-133.8-308c0-34.4 4.8-68.6 14.6-101.2 16.4-54.8 15.2-117.8-19.8-161.2-25.2 22.6-63.8 21.8-88-2.4l-144-144c-25-25-25-65.6 0-90.6l64-64c25-25 65.6-25 90.6 0l144 144c24.2 24.2 25 62.8 2.4 88 43.4 35 106.4 36 161 19.4 135.4-40.8 297 7.2 409.6 119.6 87.2 87.2 134 199.6 133.8 308 0 85.6-29.6 169.8-93 233.2s-147.8 93-233.4 93zM109.2 64l98.8 98.8 18.8-18.8-98.8-98.8-18.8 18.8z" />
<glyph unicode="&#xe906;" glyph-name="face-anguished" d="M928 448c0 229.75-186.25 416-416 416s-416-186.25-416-416v0c0-229.75 186.25-416 416-416s416 186.25 416 416v0zM0 448c0 282.77 229.23 512 512 512s512-229.23 512-512v0c0-282.77-229.23-512-512-512s-512 229.23-512 512v0zM512 320c88.4 0 160-71.6 160-160 0-17.6-14.4-32-32-32h-256c-17.6 0-32 14.4-32 32 0 88.4 71.6 160 160 160zM288.8 512c0 35.346 28.654 64 64 64s64-28.654 64-64v0c0-35.346-28.654-64-64-64s-64 28.654-64 64v0zM672.8 576c35.346 0 64-28.654 64-64s-28.654-64-64-64v0c-35.346 0-64 28.654-64 64s28.654 64 64 64v0zM384 672c-8.8 0-17.6-0.6-26-1.8-42.4-5.6-81.2-24.8-112.2-53.6-13-12-33.2-11.4-45.2 1.6s-11.4 33.2 1.6 45.2c40.2 37.4 91 63 147.4 70.4 11.2 1.4 22.8 2.2 34.4 2.2 17.6 0 32-14.4 32-32s-14.4-32-32-32zM666 670.2c-8.6 1.2-17.2 1.8-26 1.8-17.6 0-32 14.4-32 32s14.4 32 32 32c11.6 0 23.2-0.8 34.4-2.2 56.4-7.4 107.4-32.8 147.4-70.4 13-12 13.6-32.4 1.6-45.2s-32.4-13.6-45.2-1.6c-31 29-69.6 48-112.2 53.6z" />
<glyph unicode="&#xe907;" glyph-name="door-closed" horiz-adv-x="1152" d="M832 864c17.6 0 32-14.4 32-32v-800h-576v800c0 17.6 14.4 32 32 32h512zM960 32v800c0 70.6-57.4 128-128 128h-512c-70.6 0-128-57.4-128-128v-800h-144c-26.6 0-48-21.4-48-48s21.4-48 48-48h1056c26.6 0 48 21.4 48 48s-21.4 48-48 48h-144zM736 512c-35.346 0-64-28.654-64-64s28.654-64 64-64v0c35.346 0 64 28.654 64 64s-28.654 64-64 64v0z" />
<glyph unicode="&#xe908;" glyph-name="hanukiah" horiz-adv-x="1280" d="M592 848c0 38.8 26.2 87.8 36.4 105.4 2.4 4.2 6.8 6.6 11.6 6.6s9.2-2.4 11.6-6.6c10.2-17.6 36.4-66.6 36.4-105.4 0-26.6-21.4-48-48-48s-48 21.4-48 48zM0 752c0 38.8 26.2 87.8 36.4 105.4 2.4 4.2 6.8 6.6 11.6 6.6s9.2-2.4 11.6-6.6c10.2-17.6 36.4-66.6 36.4-105.4 0-26.6-21.4-48-48-48s-48 21.4-48 48zM212.4 857.4c2.4 4.2 6.8 6.6 11.6 6.6s9.2-2.4 11.6-6.6c10.2-17.6 36.4-66.6 36.4-105.4 0-26.6-21.4-48-48-48s-48 21.4-48 48c0 38.8 26.2 87.8 36.4 105.4zM304 752c0 38.8 26.2 87.8 36.4 105.4 2.4 4.2 6.8 6.6 11.6 6.6s9.2-2.4 11.6-6.6c10.2-17.6 36.4-66.6 36.4-105.4 0-26.6-21.4-48-48-48s-48 21.4-48 48zM468.4 857.4c2.4 4.2 6.8 6.6 11.6 6.6s9.2-2.4 11.6-6.6c10.2-17.6 36.4-66.6 36.4-105.4 0-26.6-21.4-48-48-48s-48 21.4-48 48c0 38.8 26.2 87.8 36.4 105.4zM752 752c0 38.8 26.2 87.8 36.4 105.4 2.4 4.2 6.8 6.6 11.6 6.6s9.2-2.4 11.6-6.6c10.2-17.6 36.4-66.6 36.4-105.4 0-26.6-21.4-48-48-48s-48 21.4-48 48zM916.4 857.4c2.4 4.2 6.8 6.6 11.6 6.6s9.2-2.4 11.6-6.6c10.2-17.6 36.4-66.6 36.4-105.4 0-26.6-21.4-48-48-48s-48 21.4-48 48c0 38.8 26.2 87.8 36.4 105.4zM1008 752c0 38.8 26.2 87.8 36.4 105.4 2.4 4.2 6.8 6.6 11.6 6.6s9.2-2.4 11.6-6.6c10.2-17.6 36.4-66.6 36.4-105.4 0-26.6-21.4-48-48-48s-48 21.4-48 48zM1220.4 857.4c2.4 4.2 6.8 6.6 11.6 6.6s9.2-2.4 11.6-6.6c10.2-17.6 36.4-66.6 36.4-105.4 0-26.6-21.4-48-48-48s-48 21.4-48 48c0 38.8 26.2 87.8 36.4 105.4zM640 736c26.6 0 48-21.4 48-48v-400h416c44.2 0 80 35.8 80 80v224c0 26.6 21.4 48 48 48s48-21.4 48-48v-224c0-97.2-78.8-176-176-176h-416v-160h304c26.6 0 48-21.4 48-48s-21.4-48-48-48h-704c-26.6 0-48 21.4-48 48s21.4 48 48 48h304v160h-416c-97.2 0-176 78.8-176 176v224c0 26.6 21.4 48 48 48s48-21.4 48-48v-224c0-44.2 35.8-80 80-80h416v400c0 26.6 21.4 48 48 48zM224 640c17.6 0 32-14.4 32-32v-256h-64v256c0 17.6 14.4 32 32 32zM352 640c17.6 0 32-14.4 32-32v-256h-64v256c0 17.6 14.4 32 32 32zM480 640c17.6 0 32-14.4 32-32v-256h-64v256c0 17.6 14.4 32 32 32zM800 640c17.6 0 32-14.4 32-32v-256h-64v256c0 17.6 14.4 32 32 32zM928 640c17.6 0 32-14.4 32-32v-256h-64v256c0 17.6 14.4 32 32 32zM1056 640c17.6 0 32-14.4 32-32v-256h-64v256c0 17.6 14.4 32 32 32z" />
<glyph unicode="&#xe909;" glyph-name="signal-strong" horiz-adv-x="1280" d="M896 768c26.6 0 48-21.4 48-48v-736c0-26.6-21.4-48-48-48s-48 21.4-48 48v736c0 26.6 21.4 48 48 48zM640 576c26.6 0 48-21.4 48-48v-544c0-26.6-21.4-48-48-48s-48 21.4-48 48v544c0 26.6 21.4 48 48 48zM384 384c26.6 0 48-21.4 48-48v-352c0-26.6-21.4-48-48-48s-48 21.4-48 48v352c0 26.6 21.4 48 48 48zM128 192c26.6 0 48-21.4 48-48v-160c0-26.6-21.4-48-48-48s-48 21.4-48 48v160c0 26.6 21.4 48 48 48z" />
<glyph unicode="&#xe90a;" glyph-name="inbox-full" d="M96 128c0-17.6 14.4-32 32-32h768c17.6 0 32 14.4 32 32v160h-162.4l-41.8-83.8c-13.6-27.2-41.2-44.2-71.6-44.2h-280.4c-30.4 0-58 17.2-71.6 44.2l-41.8 83.8h-162.4v-160zM811.2 775.8c-3.6 14.2-16.4 24.2-31.2 24.2h-536c-14.6 0-27.4-10-31-24.2l-98-391.8h153.2c30.4 0 58-17.2 71.6-44.2l41.8-83.8h260.8l41.8 83.8c13.6 27.2 41.2 44.2 71.6 44.2h153.2l-98 391.8zM0 128v176.2c0 10.4 1.2 20.8 3.8 31l116 463.8c14.2 57 65.4 97 124.2 97h536c58.8 0 110-40 124.2-97l116-463.8c2.6-10.2 3.8-20.6 3.8-31v-176.2c0-70.6-57.4-128-128-128h-768c-70.6 0-128 57.4-128 128zM368 704h288c26.6 0 48-21.4 48-48s-21.4-48-48-48h-288c-26.6 0-48 21.4-48 48s21.4 48 48 48zM304 544h416c26.6 0 48-21.4 48-48s-21.4-48-48-48h-416c-26.6 0-48 21.4-48 48s21.4 48 48 48z" />
<glyph unicode="&#xe90b;" glyph-name="stethoscope" horiz-adv-x="1152" d="M285 928.8c9.4-24.8-3.2-52.4-28-61.8l-86.6-32.4c-6.2-2.4-10.4-8.4-10.4-15v-259.6c0-114.8 93.2-208 208-208h32c114.8 0 208 93.2 208 208v259.6c0 6.6-4.2 12.6-10.4 15l-86.4 32.4c-24.8 9.4-37.4 37-28 61.8s37 37.4 61.8 28l86.4-32.4c43.6-16.2 72.6-58 72.6-104.8v-259.6c0-157-119-286.2-271.6-302.2 7.4-126 111.8-225.8 239.6-225.8 132.6 0 240 107.4 240 240v151.4c-65 20.4-112 81-112 152.6 0 88.4 71.6 160 160 160s160-71.6 160-160c0-71.6-47-132.2-112-152.6v-151.4c0-185.6-150.4-336-336-336-180.8 0-328.2 142.8-335.6 321.6-153 15.8-272.4 145.2-272.4 302.4v259.6c0 46.6 29 88.4 72.6 104.8l86.6 32.6c24.8 9.4 52.4-3.2 61.8-28zM960 640c-35.346 0-64-28.654-64-64s28.654-64 64-64v0c35.346 0 64 28.654 64 64s-28.654 64-64 64v0z" />
<glyph unicode="&#xe90c;" glyph-name="shop-lock" horiz-adv-x="1280" d="M0 588.4c0 12.8 3.2 25.4 9.4 36.6l155.4 285c16.8 30.8 49 50 84.2 50h782c35.2 0 67.4-19.2 84.2-50l155.4-284.8c6.2-11.2 9.4-23.8 9.4-36.6 0-24.8-11.8-46.6-29.8-60.6-19.2 33.4-46.8 61.2-79.8 80.8l-139.4 255.2h-782l-139.6-256h831.2c-37.6-22.6-68-56-87-96h-85.6v-496c0-44.2-35.8-80-80-80h-480c-44.2 0-80 35.8-80 80v496h-51.6c-42.2 0-76.4 34.2-76.4 76.4zM224 512v-192h448v192h-448zM224 32h448v192h-448v-192zM1056 480c-35.4 0-64-28.6-64-64v-96h128v96c0 35.4-28.6 64-64 64zM896 416c0 88.4 71.6 160 160 160s160-71.6 160-160v-96c35.4 0 64-28.6 64-64v-256c0-35.4-28.6-64-64-64h-320c-35.4 0-64 28.6-64 64v256c0 35.4 28.6 64 64 64v96z" />
<glyph unicode="&#xe90d;" glyph-name="snowman-head" horiz-adv-x="896" d="M672 672v-96h-448v96h448zM128 832v-256h-80c-26.6 0-48-21.4-48-48s21.4-48 48-48h49.4c-41.4-64.6-65.4-141.6-65.4-224 0-112 44.2-213.8 116.4-288.6 20.6-21.4 50.2-31.4 80-31.4h439.2c30 0 59.4 10 80.2 31.4 72 74.8 116.2 176.6 116.2 288.6 0 82.4-24 159.4-65.4 224h49.4c26.6 0 48 21.4 48 48s-21.4 48-48 48h-80v256c0 70.6-57.4 128-128 128h-384c-70.6 0-128-57.4-128-128zM128 256c0 87.2 34.8 166.2 91.4 224h457.2c56.6-57.8 91.4-136.8 91.4-224 0-86.2-34-164.2-89.4-221.8-0.2-0.2-0.6-0.4-1.6-0.8-1.8-0.8-5-1.4-9.6-1.4h-439c-4.4 0-7.6 0.8-9.6 1.4-0.8 0.4-1.4 0.6-1.6 0.8-55.2 57.6-89.2 135.6-89.2 221.8zM304 288c26.51 0 48 21.49 48 48s-21.49 48-48 48v0c-26.51 0-48-21.49-48-48s21.49-48 48-48v0zM640 336c0 26.51-21.49 48-48 48s-48-21.49-48-48v0c0-26.51 21.49-48 48-48s48 21.49 48 48v0zM438.6 69.6c1.8-3.4 5.4-5.6 9.4-5.6s7.6 2.2 9.4 5.6l47.6 92.6c4.6 9 7 19.2 7 29.4 0 35.4-28.6 64.4-64 64.4s-64-29-64-64.4c0-10.2 2.4-20.4 7-29.4l47.6-92.6z" />
<glyph unicode="&#xe90e;" glyph-name="message-dollar" d="M416 128c0 53-43 96-96 96h-192c-17.6 0-32 14.4-32 32v576c0 17.6 14.4 32 32 32h768c17.6 0 32-14.4 32-32v-576c0-17.6-14.4-32-32-32h-277.4c-20.8 0-41-6.8-57.6-19.2l-145-108.8v32zM415.6-24.4l0.4 0.4 202.6 152h277.4c70.6 0 128 57.4 128 128v576c0 70.6-57.4 128-128 128h-768c-70.6 0-128-57.4-128-128v-576c0-70.6 57.4-128 128-128h192v-160c0-12.2 6.8-23.2 17.6-28.6s23.8-4.2 33.6 3l44.4 33.2zM552 752c0 22-18 40-40 40s-40-18-40-40v-28c-15.2-3.4-30.4-8.8-44.4-17-27.8-16.6-51.8-45.6-51.6-87.8 0.2-40.6 24-66.2 49.4-81.4 22-13.2 49.4-21.6 71.2-28l3.4-1c25.2-7.6 43.6-13.6 56-21.4 10.2-6.4 11.6-10.8 11.8-16.4 0.2-10-3.6-16-11.8-21-10-6.2-25.8-10-42.8-9.4-22.2 0.8-43 7.8-70.2 17-4.6 1.6-9.4 3.2-14.4 4.8-21 7-43.6-4.4-50.6-25.2s4.4-43.6 25.2-50.6c3.8-1.2 8-2.6 12.2-4.2v0 0c16.6-5.8 35.8-12.4 56.4-16.8v-29.6c0-22 18-40 40-40s40 18 40 40v27.6c16 3.4 32 9 46.4 18 28.6 17.8 50.2 48.2 49.6 90-0.6 40.6-23.4 66.8-49.2 83.2-23 14.4-51.8 23.2-74.2 30l-1.4 0.4c-25.6 7.8-43.8 13.4-56.6 21-10.4 6.2-10.6 9.8-10.6 13.4 0 7.4 2.8 13 12.4 18.6 10.8 6.4 27.2 10.2 43 10 19.2-0.2 40.4-4.4 62.4-10.4 21.4-5.6 43.2 7 49 28.4s-7 43.2-28.4 49c-13 3.4-27.4 6.8-42.2 9.4v27.4z" />
<glyph unicode="&#xe90f;" glyph-name="input-text" horiz-adv-x="1280" d="M128 736c-17.6 0-32-14.4-32-32v-512c0-17.6 14.4-32 32-32h1024c17.6 0 32 14.4 32 32v512c0 17.6-14.4 32-32 32h-1024zM0 704c0 70.6 57.4 128 128 128h1024c70.6 0 128-57.4 128-128v-512c0-70.6-57.4-128-128-128h-1024c-70.6 0-128 57.4-128 128v512zM368 640c19 0 36.2-11.2 43.8-28.6l128-288c10.8-24.2-0.2-52.6-24.4-63.4s-52.6 0.2-63.4 24.4l-8.6 19.4h-150.8l-8.6-19.4c-10.8-24.2-39.2-35.2-63.4-24.4s-35.2 39.2-24.4 63.4l128 288c7.8 17.4 24.8 28.6 43.8 28.6zM368 473.8l-32.8-73.8h65.6l-32.8 73.8zM608 592c0 26.6 21.4 48 48 48h104c66.2 0 120-53.8 120-120 0-18.4-4.2-35.8-11.6-51.4 26.6-22 43.6-55.2 43.6-92.6 0-66.2-53.8-120-120-120h-136c-26.6 0-48 21.4-48 48v288zM704 544v-48h56c13.2 0 24 10.8 24 24s-10.8 24-24 24h-56zM704 352h88c13.2 0 24 10.8 24 24s-10.8 24-24 24h-88v-48z" />
<glyph unicode="&#xe910;" glyph-name="broom" horiz-adv-x="1152" d="M1138 878c18.8 18.8 18.8 49.2 0 67.8s-49.2 18.8-67.8 0l-400.2-399.8-78 78c-10.2 10.2-24.2 16-38.8 16-24.4 0-46-16.2-52.6-39.8l-31.8-111.2-1.2 0.2c-92.8 14.2-187-16.6-253.4-83l-20.2-20.2c-36.8-36.8-59.4-84.8-64.8-136-0.8-7.6-1.2-15.4-1.2-23.2 0-19.2 15.6-34.6 34.6-34.6h45.4l-193.6-179c-9.2-8.4-14.4-20.2-14.4-32.6 0-24.6 20-44.6 44.6-44.6h345.4c78.2 0 153.2 31 208.4 86.4 66.4 66.4 97.2 160.4 83 253.4l-0.2 1.2 111.2 31.8c23.6 6.8 39.8 28.2 39.8 52.6 0 14.6-5.8 28.4-16 38.8l-78 78 399.8 399.8zM557.6 450.4l16 56.2 124.8-124.8-56.2-16-84.6 84.6zM453 394.4l19.6-3 110.8-110.8 3-19.6c9.6-62.6-11.2-126-56-170.8-37.2-37.2-87.8-58.2-140.6-58.2h-213.6l97 89.4c29 26.8 38.6 68.6 24.2 105.4-10.8 27.4-33.2 47.8-60.2 56.6 6.2 12.8 14.6 24.4 24.8 34.6l20.4 20.4c44.8 44.8 108.2 65.6 170.8 56z" />
<glyph unicode="&#xe911;" glyph-name="roller-coaster" horiz-adv-x="1280" d="M96 592c0 80.2 45.4 149.8 112 184.6v-728.6c0-26.6 21.4-48 48-48s48 21.4 48 48v752h10.2c30 0 59.2-6.4 85.8-18.6v-733.4c0-26.6 21.4-48 48-48s48 21.4 48 48v646.8l96-138.2v-508.6c0-26.6 21.4-48 48-48s48 21.4 48 48v370.2l29.8-43c18.8-27.2 41.2-51.2 66.2-71.6v-255.6c0-26.6 21.4-48 48-48s48 21.4 48 48v199.8c30.6-11.8 62.8-19.4 96-22.4v-177.4c0-26.6 21.4-48 48-48s48 21.4 48 48v180.4c41.8 8 80 26 112 51.6v-232c0-26.6 21.4-48 48-48s48 21.4 48 48v448c0 150.2-121.8 272-272 272h-16.2c-60.8 0-120.6-16.6-172.8-47.8l-103-61.8 116-167v124.6l36.2 21.8c28.2 16.8 59.4 27.8 91.8 32v-237.8c0-26.6 21.4-48 48-48s48 21.4 48 48v233.4c73.8-20.8 128-88.8 128-169.4v-16c0-88.4-71.6-160-160-160h-17c-83.8 0-162.4 41-210.2 110l-233 335.4c-56.8 81.8-150 130.6-249.6 130.6h-10.2c-167.8 0-304-136.2-304-304v-544c0-26.6 21.4-48 48-48s48 21.4 48 48v544z" />
<glyph unicode="&#xe912;" glyph-name="person-to-portal" d="M544 768c53.019 0 96 42.981 96 96s-42.981 96-96 96v0c-53.019 0-96-42.981-96-96s42.981-96 96-96v0zM362.6 742.8c-28 7-57.4 7-85.4 0l-3.6-1c-26.6-6.6-51.2-19.4-71.8-37.2l-89-76.2c-20.2-17.2-22.4-47.6-5.2-67.6s47.6-22.4 67.6-5.2l89 76.4c9.4 8 20.6 13.8 32.6 16.8l3.6 1c12.8 3.2 26 3.2 38.8 0l17.2-4.2-65.4-196c-17-51 4.6-106.8 51.4-133l176-99-68.2-219.2c-8-25.4 6.2-52.2 31.4-60.2s52.2 6.2 60.2 31.6l72.2 231.2c11.2 36-4.2 75-37.2 93.6l-64.2 36 56.2 168.8 11.2-36.4c14.4-47 57.8-79 107-79h97c26.6 0 48 21.4 48 48s-21.4 48-48 48h-47.8c2.4 165.8 22.8 269 48.2 328 24.8 57.4 44.8 56.2 47.4 56h0.4c2.6 0.2 22.6 1.4 47.4-56 27-62.8 48.4-175.4 48.4-360s-21.4-297.2-48.4-360c-24.8-57.4-44.8-56.2-47.4-56h-0.4c-2.6-0.2-22.6-1.4-47.4 56-20.2 46.8-37.2 121-44.4 232h-96.2c17.6-281.4 95.2-384 188.2-384 106 0 192 133.2 192 512s-86 512-192 512c-92.4 0-169.6-101.2-187.8-378.2l-11.6 37.8c-11.6 37.4-41.8 66.2-79.8 75.8l-190 47.4zM504.2 608.4l-76.6-230-38 21.4c-6.6 3.8-9.8 11.8-7.4 19l67.8 203.2 54.2-13.6zM245 325.8l-38.2-101.8h-158.8c-26.6 0-48-21.4-48-48s21.4-48 48-48h169.8c33.4 0 63.2 20.6 74.8 51.8l28.2 75.2-9.8 5.6c-28.2 16-50.8 38.6-66 65.2z" />
<glyph unicode="&#xe913;" glyph-name="book-open" horiz-adv-x="1152" d="M312 896c-110.8 0-214.4-29.2-257.8-43.2-33.6-10.8-54.2-41.8-54.2-75v-624.8c0-52.2 48-88.4 96-80.4 39.6 6.6 109.6 15.4 200 15.4 108 0 195-51 225-71.2 15-10 33.6-16.8 54-16.8 23 0 43.2 8.4 58.6 19.8 26.8 19.6 104.6 68.2 222.4 68.2 95.4 0 161-8 198-14.4 47.8-8.2 98 27.6 98 81.2v623c0 33-20.6 64.2-54.2 75-43.4 14-147 43.2-257.8 43.2-73.6 0-143.6-12.8-194.8-25.4-25.6-6.4-47-12.6-61.8-17.4-2.6-0.8-5.2-1.6-7.4-2.4-2.2 0.8-4.8 1.6-7.4 2.4-15 4.8-36.2 11-61.8 17.4-51.2 12.6-121.2 25.4-194.8 25.4zM528 765.4v-641.2c-52 27.4-134.4 59.8-232 59.8-85.8 0-154.8-7.4-200-14.2v595.6c44.6 13.4 128.8 34.6 216 34.6 63.2 0 125.2-11.2 171.8-22.6 17.2-4.2 32.2-8.4 44.2-12zM624 127v638.4c12 3.6 27 7.8 44.2 12 46.6 11.4 108.6 22.6 171.8 22.6 87.2 0 171.4-21.2 216-34.6v-594.8c-43.4 6.6-109.8 13.4-200 13.4-102.8 0-181.6-30-232-57.2z" />
<glyph unicode="&#xe914;" glyph-name="user-tie" horiz-adv-x="896" d="M448 544c88.366 0 160 71.634 160 160s-71.634 160-160 160v0c-88.366 0-160-71.634-160-160s71.634-160 160-160v0zM704 704c0-141.385-114.615-256-256-256s-256 114.615-256 256v0c0 141.385 114.615 256 256 256s256-114.615 256-256v0zM418.2 241.6l-37.2 62c-12.8 21.4 2.6 48.4 27.4 48.4h79c24.8 0 40.2-27.2 27.4-48.4l-37.2-62 31.8-118.4 87.6 175.2c6 12 18.8 19 31.8 16.8 152-26.4 267.2-158.6 267.2-317.8 0-34-27.6-61.4-61.4-61.4h-773.2c-33.8 0-61.4 27.6-61.4 61.4 0 159.2 115.2 291.4 267 317.8 13.2 2.2 25.8-4.8 31.8-16.8l87.6-175.2 31.8 118.4zM237 207.4c-72.4-29.6-126.2-95.8-138.4-175.4h226l-87.6 175.4zM571.4 32h226c-12.2 79.6-66 145.8-138.4 175.4l-87.6-175.4z" />
<glyph unicode="&#xe915;" glyph-name="film-canister" horiz-adv-x="1152" d="M192 896c0 35.4 28.6 64 64 64h192c35.4 0 64-28.6 64-64h144c26.6 0 48-21.4 48-48s-21.4-48-48-48h-16v-768h16c26.6 0 48-21.4 48-48s-21.4-48-48-48h-608c-26.6 0-48 21.4-48 48s21.4 48 48 48h16v768h-16c-26.6 0-48 21.4-48 48s21.4 48 48 48h144zM160 800v-768h384v768h-384zM1088 704c35.4 0 64-28.6 64-64v-256c0-35.4-28.6-64-64-64s-64-28.6-64-64v-64c0-35.4-28.6-64-64-64h-256v576h384zM784 592v-32c0-17.6 14.4-32 32-32h32c17.6 0 32 14.4 32 32v32c0 17.6-14.4 32-32 32h-32c-17.6 0-32-14.4-32-32zM1008 624c-17.6 0-32-14.4-32-32v-32c0-17.6 14.4-32 32-32h32c17.6 0 32 14.4 32 32v32c0 17.6-14.4 32-32 32h-32zM784 272v-32c0-17.6 14.4-32 32-32h32c17.6 0 32 14.4 32 32v32c0 17.6-14.4 32-32 32h-32c-17.6 0-32-14.4-32-32z" />
<glyph unicode="&#xe916;" glyph-name="square-sliders" horiz-adv-x="896" d="M96 128c0-17.6 14.4-32 32-32h640c17.6 0 32 14.4 32 32v640c0 17.6-14.4 32-32 32h-640c-17.6 0-32-14.4-32-32v-640zM0 768c0 70.6 57.4 128 128 128h640c70.6 0 128-57.4 128-128v-640c0-70.6-57.4-128-128-128h-640c-70.6 0-128 57.4-128 128v640zM192 608c0 26.6 21.4 48 48 48h64v32c0 26.6 21.4 48 48 48s48-21.4 48-48v-32h256c26.6 0 48-21.4 48-48s-21.4-48-48-48h-256v-32c0-26.6-21.4-48-48-48s-48 21.4-48 48v32h-64c-26.6 0-48 21.4-48 48zM240 240c-26.6 0-48 21.4-48 48s21.4 48 48 48h256v32c0 26.6 21.4 48 48 48s48-21.4 48-48v-32h64c26.6 0 48-21.4 48-48s-21.4-48-48-48h-64v-32c0-26.6-21.4-48-48-48s-48 21.4-48 48v32h-256z" />
<glyph unicode="&#xe917;" glyph-name="pump-medical" horiz-adv-x="896" d="M336 960h96c50.8 0 93.6-33.8 107.4-80h92.8c38.2 0 74.8-15.2 101.8-42.2l84-83.8c18.8-18.8 18.8-49.2 0-67.8s-49.2-18.8-67.8 0l-84 83.8c-9 9-21.2 14-34 14h-88.2v-80h-96v144c0 8.8-7.2 16-16 16h-96c-8.8 0-16-7.2-16-16v-144h-96v144c0 61.8 50.2 112 112 112zM203 514.6l-37.4-448c-1.4-18.6 13.2-34.6 32-34.6h372.8c18.8 0 33.4 16 31.8 34.6l-37.4 448c-1.4 16.6-15.2 29.4-31.8 29.4h-298.2c-16.6 0-30.6-12.8-31.8-29.4zM107.4 522.6c5.6 66.4 61 117.4 127.6 117.4h298.2c66.6 0 122-51 127.6-117.4l37.4-448c6.2-74.6-52.6-138.6-127.6-138.6h-373c-74.8 0-133.8 64-127.6 138.6l37.4 448zM432 368v-32h32c26.6 0 48-21.4 48-48s-21.4-48-48-48h-32v-32c0-26.6-21.4-48-48-48s-48 21.4-48 48v32h-32c-26.6 0-48 21.4-48 48s21.4 48 48 48h32v32c0 26.6 21.4 48 48 48s48-21.4 48-48z" />
<glyph unicode="&#xe918;" glyph-name="person-dolly-empty" d="M160 960c53.019 0 96-42.981 96-96s-42.981-96-96-96v0c-53.019 0-96 42.981-96 96s42.981 96 96 96v0zM0-16v295.4c1-0.8 2.2-1.8 3.2-2.6l92.8-73v-219.8c0-26.6-21.4-48-48-48s-48 21.4-48 48zM121.2 608c-13.8 0-25.2-11.2-25.2-25.2v-167.8c0-5 2.2-9.6 6.2-12.6l41.8-32.8v234c-7.2 2.8-15 4.4-22.8 4.4zM240 490.6v-196.4l51.6-40.6c16.2-12.8 26.8-31.2 29.8-51.6l30.2-211.2c3.8-26.2-14.4-50.6-40.8-54.4s-50.6 14.4-54.4 40.8l-29.2 205-184.4 144.8c-27 21.2-42.8 53.8-42.8 88.2v167.6c0 67 54.2 121.2 121.2 121.2 49.6 0 96.4-23.4 126.2-63l96.6-129h70.6l-13 52.4c-6.4 25.8 9.2 51.8 35 58.2s51.8-9.2 58.2-35l99.2-396.8c35.2-4.8 65.8-24 85.6-51.4l268.8 67.2c25.8 6.4 51.8-9.2 58.2-35s-9.2-51.8-35-58.2l-268.8-67.2c-8.6-62.2-62.2-110.2-126.8-110.2-70.6 0-128 57.4-128 128 0 42.6 20.8 80.2 52.6 103.4l-62 248.6h-102.6c-25.2 0-48.8 11.8-64 32l-32 42.6zM608 64c0 17.673-14.327 32-32 32s-32-14.327-32-32v0c0-17.673 14.327-32 32-32s32 14.327 32 32v0z" />
<glyph unicode="&#xe919;" glyph-name="circle-8" d="M928 448c0 229.75-186.25 416-416 416s-416-186.25-416-416v0c0-229.75 186.25-416 416-416s416 186.25 416 416v0zM0 448c0 282.77 229.23 512 512 512s512-229.23 512-512v0c0-282.77-229.23-512-512-512s-512 229.23-512 512v0zM528 704c79.6 0 144-64.4 144-144 0-31.4-10-60.2-27-84 36-29.4 59-74 59-124 0-88.4-71.6-160-160-160h-64c-88.4 0-160 71.6-160 160 0 50 23 94.8 59 124-17 23.8-27 52.6-27 84 0 79.6 64.4 144 144 144h32zM496 512s0 0 0 0h32s0 0 0 0c26.4 0 48 21.6 48 48s-21.4 48-48 48h-32c-26.6 0-48-21.4-48-48s21.4-48 48-48zM528 416h-48c-35.4 0-64-28.6-64-64s28.6-64 64-64h64c35.4 0 64 28.6 64 64s-28.6 64-64 64h-16z" />
<glyph unicode="&#xe91a;" glyph-name="camera-slash" horiz-adv-x="1280" d="M77.6 949.8c-20.8 16.4-51 12.6-67.4-8.2s-12.6-51 8.2-67.4l1184-928c20.8-16.4 51-12.6 67.4 8.2s12.6 51-8.2 67.4l-111 87c1 6.2 1.4 12.6 1.4 19.2v512c0 70.6-57.4 128-128 128h-146.8l-17.2 51.4c-15.2 45.8-58 76.6-106.2 76.6h-227.6c-48.2 0-91-30.8-106.2-76.6l-17.2-51.4h-93.2l-232 181.8zM432 672h5.4c20.6 0 39 13.2 45.6 32.8l28 84.2c2.2 6.6 8.2 11 15.2 11h227.6c6.8 0 13-4.4 15.2-11l28-84.2c6.6-19.6 24.8-32.8 45.6-32.8h181.4c17.6 0 32-14.4 32-32v-457l-196.8 154.4c3.2 15 4.8 30.8 4.8 46.8 0 123.8-100.2 224-224 224-35 0-68.2-8-97.8-22.4l-110.2 86.2zM765.2 410.8l-129 101.2c1.2 0 2.6 0 3.8 0 61.4 0 112.8-43.4 125.2-101.2zM974.8 0l-121.8 96h-597c-17.6 0-32 14.4-32 32v463.6l-93.6 73.6c-1.6-8.2-2.4-16.6-2.4-25.2v-512c0-70.6 57.4-128 128-128h718.8zM741.2 184l-91.8 72.2c-3.2-0.2-6.2-0.4-9.4-0.4-63.6 0-116.4 46.4-126.4 107.2l-91.6 72.6c-3.8-16.6-6-33.8-6-51.6 0-123.8 100.2-224 224-224 36.4 0 70.8 8.6 101.2 24z" />
<glyph unicode="&#xe91b;" glyph-name="phone-flip" d="M272.4 409.6c32.8 14 70.8 4.8 93.4-22.8l66.4-81.2c92 53.4 168.8 130.2 222.2 222.2l-81 66.2c-27.6 22.6-37 60.6-22.8 93.4l96 224c15 35.2 52.8 54.8 90.2 46.8l224-48c36.8-7.8 63.2-40.4 63.2-78.2v0c0-462.4-350.4-843-800.2-891-19.6-2-39.4-3.6-59.2-4.4 0 0 0 0 0 0s-0.2 0-0.2 0c-12.2-0.4-24.2-0.8-36.6-0.8v0c-37.8 0-70.4 26.4-78.2 63.2l-48 224c-8 37.4 11.6 75.2 46.8 90.2l224 96zM141 32c431.6 7 780 355.6 787 787l-198.4 42.6-86-200.8 71.6-58.8c36.4-29.8 45.8-81.6 22.2-122.4-61.8-106.6-150.6-195.4-257.2-257.2-40.8-23.6-92.6-14.2-122.4 22.2l-58.8 71.8-200.8-86 42.8-198.4zM928 832s0 0 0 0v0 0 0 0 0 0 0 0 0 0 0 0 0 0 0 0 0 0 0 0 0 0 0z" />
<glyph unicode="&#xe91c;" glyph-name="asterisk" horiz-adv-x="768" d="M384 896c26.6 0 48-21.4 48-48v-313.8l262.8 162.6c22.6 14 52.2 7 66-15.6s7-52.2-15.6-66l-270-167.2 270-167.2c22.6-14 29.6-43.6 15.6-66s-43.6-29.4-66-15.6l-262.8 162.6v-313.8c0-26.6-21.4-48-48-48s-48 21.4-48 48v313.8l-262.8-162.6c-22.6-14-52.2-7-66 15.6s-7 52.2 15.6 66l270 167.2-270 167.2c-22.6 14-29.6 43.6-15.6 66s43.6 29.6 66 15.6l262.8-162.6v313.8c0 26.6 21.4 48 48 48z" />
<glyph unicode="&#xe91d;" glyph-name="circle-quarter" d="M416 852.8v-308.8h-308.8c36 152.6 156.2 272.8 308.8 308.8zM4 511.8c-4.4-35 24.6-63.8 60-63.8h384c35.4 0 64 28.6 64 64v384c0 35.4-28.8 64.4-63.8 60-231.8-28.8-415.4-212.4-444.2-444.2z" />
<glyph unicode="&#xe91e;" glyph-name="gif" horiz-adv-x="1152" d="M1024 800c17.6 0 32-14.4 32-32v-640c0-17.6-14.4-32-32-32h-896c-17.6 0-32 14.4-32 32v640c0 17.6 14.4 32 32 32h896zM128 896c-70.6 0-128-57.4-128-128v-640c0-70.6 57.4-128 128-128h896c70.6 0 128 57.4 128 128v640c0 70.6-57.4 128-128 128h-896zM608 648c-22 0-40-18-40-40v-320c0-22 18-40 40-40s40 18 40 40v320c0 22-18 40-40 40zM712 608v-320c0-22 18-40 40-40s40 18 40 40v120h104c22 0 40 18 40 40s-18 40-40 40h-104v80h136c22 0 40 18 40 40s-18 40-40 40h-176c-22 0-40-18-40-40zM264 448c0 66.2 53.8 120 120 120 27 0 52-9 72-24 17.6-13.2 42.8-9.8 56 8s9.8 42.8-8 56c-33.4 25.2-75 40-120 40-110.4 0-200-89.6-200-200s89.6-200 200-200c45 0 86.6 14.8 120 40 10 7.6 16 19.4 16 32v112c0 22-18 40-40 40h-112c-22 0-40-18-40-40s18-40 40-40h72v-50.2c-16.8-8.8-35.8-13.8-56-13.8-66.2 0-120 53.8-120 120z" />
<glyph unicode="&#xe91f;" glyph-name="car-building" horiz-adv-x="1280" d="M576 864h-448c-17.6 0-32-14.4-32-32v-704c0-17.6 14.4-32 32-32h256v-96h-256c-70.6 0-128 57.4-128 128v704c0 70.6 57.4 128 128 128h448c70.6 0 128-57.4 128-128v-129c-35-3.4-67.8-15.4-96-34.2v163.2c0 17.6-14.4 32-32 32zM512 521.8l-26.2-73.2c-1.8-0.4-3.8-0.6-5.8-0.6h-64c-17.6 0-32 14.4-32 32v64c0 17.6 14.4 32 32 32h64c17.6 0 32-14.4 32-32v-22.2zM192 736c0 17.6 14.4 32 32 32h64c17.6 0 32-14.4 32-32v-64c0-17.6-14.4-32-32-32h-64c-17.6 0-32 14.4-32 32v64zM416 768h64c17.6 0 32-14.4 32-32v-64c0-17.6-14.4-32-32-32h-64c-17.6 0-32 14.4-32 32v64c0 17.6 14.4 32 32 32zM192 544c0 17.6 14.4 32 32 32h64c17.6 0 32-14.4 32-32v-64c0-17.6-14.4-32-32-32h-64c-17.6 0-32 14.4-32 32v64zM192 352c0 17.6 14.4 32 32 32h64c17.6 0 32-14.4 32-32v-64c0-17.6-14.4-32-32-32h-64c-17.6 0-32 14.4-32 32v64zM723.6 544c-20.2 0-38.4-12.8-45.2-31.8l-34.2-96.2h439.6l-34.4 96.2c-6.8 19.2-25 31.8-45.2 31.8h-280.6zM530.8 384.2l57.2 160.2c20.4 57.4 74.8 95.6 135.6 95.6h280.8c60.8 0 115.2-38.2 135.6-95.6l57.2-160.2c0.4-1 0.6-1.8 1-2.8 49.4-34.8 81.8-92.4 81.8-157.4v-240c0-26.6-21.4-48-48-48s-48 21.4-48 48v80h-640v-80c0-26.6-21.4-48-48-48s-48 21.4-48 48v240c0 65 32.4 122.6 81.8 157.4 0.2 1 0.6 1.8 1 2.8zM1088 320h-448c-53 0-96-43-96-96v-64h640v64c0 53-43 96-96 96zM672 288c26.51 0 48-21.49 48-48s-21.49-48-48-48v0c-26.51 0-48 21.49-48 48s21.49 48 48 48v0zM1008 240c0 26.51 21.49 48 48 48s48-21.49 48-48v0c0-26.51-21.49-48-48-48s-48 21.49-48 48v0z" />
<glyph unicode="&#xe920;" glyph-name="chart-candlestick" d="M96 848c0 26.6-21.4 48-48 48s-48-21.4-48-48v-704c0-79.6 64.4-144 144-144h832c26.6 0 48 21.4 48 48s-21.4 48-48 48h-832c-26.6 0-48 21.4-48 48v704zM640 864c0 17.6-14.4 32-32 32s-32-14.4-32-32v-96c-35.4 0-64-28.6-64-64v-192c0-35.4 28.6-64 64-64v-96c0-17.6 14.4-32 32-32s32 14.4 32 32v96c35.4 0 64 28.6 64 64v192c0 35.4-28.6 64-64 64v96zM768 512v-128c0-35.4 28.6-64 64-64v-96c0-17.6 14.4-32 32-32s32 14.4 32 32v96c35.4 0 64 28.6 64 64v128c0 35.4-28.6 64-64 64v96c0 17.6-14.4 32-32 32s-32-14.4-32-32v-96c-35.4 0-64-28.6-64-64zM320 704c-35.4 0-64-28.6-64-64v-256c0-35.4 28.6-64 64-64v-96c0-17.6 14.4-32 32-32s32 14.4 32 32v96c35.4 0 64 28.6 64 64v256c0 35.4-28.6 64-64 64v96c0 17.6-14.4 32-32 32s-32-14.4-32-32v-96z" />
<glyph unicode="&#xe921;" glyph-name="transporter-4" d="M448 960h128c17.6 0 32-14.4 32-32s-14.4-32-32-32h-128c-17.6 0-32 14.4-32 32s14.4 32 32 32zM448 832h128c17.6 0 32-14.4 32-32s-14.4-32-32-32h-128c-17.6 0-32 14.4-32 32s14.4 32 32 32zM352 704h320c17.6 0 32-14.4 32-32s-14.4-32-32-32h-320c-17.6 0-32 14.4-32 32s14.4 32 32 32zM288 576h448c17.6 0 32-14.4 32-32s-14.4-32-32-32h-448c-17.6 0-32 14.4-32 32s14.4 32 32 32zM224 448h576c17.6 0 32-14.4 32-32s-14.4-32-32-32h-576c-17.6 0-32 14.4-32 32s14.4 32 32 32zM352 320h320c17.6 0 32-14.4 32-32s-14.4-32-32-32h-320c-17.6 0-32 14.4-32 32s14.4 32 32 32zM352 192h320c17.6 0 32-14.4 32-32s-14.4-32-32-32h-320c-17.6 0-32 14.4-32 32s14.4 32 32 32zM945.4 690.8l14.6-50.8 50.8-14.6c7.8-2.2 13.2-9.4 13.2-17.4s-5.4-15.2-13.2-17.4l-50.8-14.6-14.6-50.8c-2.2-7.8-9.4-13.2-17.4-13.2s-15.2 5.4-17.4 13.2l-14.6 50.8-50.8 14.6c-7.8 2.2-13.2 9.4-13.2 17.4s5.4 15.2 13.2 17.4l50.8 14.6 14.6 50.8c2.2 7.8 9.4 13.2 17.4 13.2s15.2-5.4 17.4-13.2zM113.4 242.8l14.6-50.8 50.8-14.6c7.8-2.2 13.2-9.4 13.2-17.4s-5.4-15.2-13.2-17.4l-50.8-14.6-14.6-50.8c-2.2-7.8-9.4-13.2-17.4-13.2s-15.2 5.4-17.4 13.2l-14.6 50.8-50.8 14.6c-7.8 2.2-13.2 9.2-13.2 17.4s5.4 15.2 13.2 17.4l50.8 14.6 14.6 50.8c2.2 7.8 9.4 13.2 17.4 13.2s15.2-5.4 17.4-13.2zM192-16c0 26.6 21.4 48 48 48h544c26.6 0 48-21.4 48-48s-21.4-48-48-48h-544c-26.6 0-48 21.4-48 48z" />
<glyph unicode="&#xe922;" glyph-name="location-crosshairs-slash" horiz-adv-x="1280" d="M77.6 949.8c-20.8 16.4-51 12.6-67.4-8.2s-12.6-51 8.2-67.4l1184-928c20.8-16.4 51-12.6 67.4 8.2s12.6 51-8.2 67.4l-292 229c26.8 44.6 44.8 95.2 51.6 149.2h82.8c26.6 0 48 21.4 48 48s-21.4 48-48 48h-83c-21.6 173.6-159.4 311.4-333 333v83c0 26.6-21.4 48-48 48s-48-21.4-48-48v-83c-86.2-10.8-163.6-50-222.2-108.2l-292.2 229zM446.2 661c51 46.6 119.2 75 193.8 75 159 0 288-129 288-288 0-49.8-12.6-96.6-34.8-137.4l-77.2 60.4c10.4 23.6 16 49.6 16 77 0 106-86 192-192 192-44 0-84.4-14.8-116.8-39.6l-77.2 60.4zM735 434.4l-131 102.6c11 4.4 23.2 7 35.8 7 53 0 96-43 96-96 0-4.6-0.4-9.2-1-13.6zM829.8 114l-83.8 66c-32.8-13-68.6-20.2-106-20.2-159 0-288 129-288 288 0 13.8 1 27.2 2.8 40.4l-83.8 66c-5.4-19-9.4-38.4-12-58.6h-83c-26.6 0-48-21.4-48-48s21.4-48 48-48h83c21.6-173.6 159.4-311.4 333-333v-82.6c0-26.6 21.4-48 48-48s48 21.4 48 48v83c51 6.4 99 22.8 141.8 47.2z" />
<glyph unicode="&#xe923;" glyph-name="bed" horiz-adv-x="1280" d="M96 848c0 26.6-21.4 48-48 48s-48-21.4-48-48v-800c0-26.6 21.4-48 48-48s48 21.4 48 48v144h1088v-160c0-26.6 21.4-48 48-48s48 21.4 48 48v432c0 132.6-107.4 240-240 240h-352c-61.8 0-112-50.2-112-112v-304h-480v560zM1184 464v-176h-512v304c0 8.8 7.2 16 16 16h352c79.6 0 144-64.4 144-144zM256 528c0 44.183 35.817 80 80 80s80-35.817 80-80v0c0-44.183-35.817-80-80-80s-80 35.817-80 80v0zM512 528c0 97.202-78.798 176-176 176s-176-78.798-176-176v0c0-97.202 78.798-176 176-176s176 78.798 176 176v0z" />
<glyph unicode="&#xe924;" glyph-name="mobile-screen" horiz-adv-x="768" d="M128 64c0-17.6 14.4-32 32-32h448c17.6 0 32 14.4 32 32v160h-512v-160zM128 320h512v512c0 17.6-14.4 32-32 32h-448c-17.6 0-32-14.4-32-32v-512zM32 832c0 70.6 57.4 128 128 128h448c70.6 0 128-57.4 128-128v-768c0-70.6-57.4-128-128-128h-448c-70.6 0-128 57.4-128 128v768zM320 160h128c17.6 0 32-14.4 32-32s-14.4-32-32-32h-128c-17.6 0-32 14.4-32 32s14.4 32 32 32z" />
<glyph unicode="&#xe925;" glyph-name="bracket-square" horiz-adv-x="384" d="M0 784c0 61.8 50.2 112 112 112h128c26.6 0 48-21.4 48-48s-21.4-48-48-48h-128c-8.8 0-16-7.2-16-16v-672c0-8.8 7.2-16 16-16h128c26.6 0 48-21.4 48-48s-21.4-48-48-48h-128c-61.8 0-112 50.2-112 112v672z" />
<glyph unicode="&#xe926;" glyph-name="grid-round-2" d="M256 608c53.019 0 96 42.981 96 96s-42.981 96-96 96v0c-53.019 0-96-42.981-96-96s42.981-96 96-96v0zM448 704c0-106.039-85.961-192-192-192s-192 85.961-192 192v0c0 106.039 85.961 192 192 192s192-85.961 192-192v0zM256 96c53.019 0 96 42.981 96 96s-42.981 96-96 96v0c-53.019 0-96-42.981-96-96s42.981-96 96-96v0zM448 192c0-106.039-85.961-192-192-192s-192 85.961-192 192v0c0 106.039 85.961 192 192 192s192-85.961 192-192v0zM672 704c0-53.019 42.981-96 96-96s96 42.981 96 96v0c0 53.019-42.981 96-96 96s-96-42.981-96-96v0zM768 512c-106.039 0-192 85.961-192 192s85.961 192 192 192v0c106.039 0 192-85.961 192-192s-85.961-192-192-192v0zM768 96c53.019 0 96 42.981 96 96s-42.981 96-96 96v0c-53.019 0-96-42.981-96-96s42.981-96 96-96v0zM960 192c0-106.039-85.961-192-192-192s-192 85.961-192 192v0c0 106.039 85.961 192 192 192s192-85.961 192-192v0z" />
<glyph unicode="&#xe927;" glyph-name="mars-stroke" d="M704 912c0 26.6 21.4 48 48 48h224c26.6 0 48-21.4 48-48v-224c0-26.6-21.4-48-48-48s-48 21.4-48 48v108.2l-108.2-108.2 62-62c18.8-18.8 18.8-49.2 0-67.8s-49.2-18.8-67.8 0l-62 62-55.4-55.4c44.8-59.2 71.4-133 71.4-212.8 0-194.4-157.6-352-352-352s-352 157.6-352 352 157.6 352 352 352c79.8 0 153.6-26.6 212.6-71.4l55.6 55.4-62 62c-18.8 18.8-18.8 49.2 0 67.8s49.2 18.8 67.8 0l62-62 108.2 108.2h-108.2c-26.6 0-48 21.4-48 48zM416 96c141.385 0 256 114.615 256 256s-114.615 256-256 256v0c-141.385 0-256-114.615-256-256s114.615-256 256-256v0z" />
<glyph unicode="&#xe928;" glyph-name="arrow-up-from-line" horiz-adv-x="768" d="M419 880.8c-9.2 9.8-21.8 15.2-35 15.2s-25.8-5.4-35-15.2l-256-272c-18.2-19.4-17.2-49.6 2-67.8s49.6-17.2 67.8 2l173.2 184v-423c0-26.6 21.4-48 48-48s48 21.4 48 48v423l173-183.8c18.2-19.4 48.6-20.2 67.8-2s20.2 48.6 2 67.8l-256 272zM48 96c-26.6 0-48-21.4-48-48s21.4-48 48-48h672c26.6 0 48 21.4 48 48s-21.4 48-48 48h-672z" />
<glyph unicode="&#xe929;" glyph-name="teeth" horiz-adv-x="1152" d="M192 800c-53 0-96-43-96-96v-90.8c31.8 45.2 84.4 74.8 144 74.8 30.4 0 59-7.8 84-21.4 32.2 42.2 82.8 69.4 140 69.4 42.6 0 81.6-15 112-40.2 30.4 25.2 69.4 40.2 112 40.2 57 0 107.8-27.2 140-69.4 25 13.6 53.6 21.4 84 21.4 59.6 0 112.2-29.6 144-74.8v90.8c0 53-43 96-96 96h-768zM96 234.8v-42.8c0-53 43-96 96-96h768c53 0 96 43 96 96v42.8c-31.8-45.2-84.4-74.8-144-74.8-42.6 0-81.6 15-112 40.2-30.4-25.2-69.4-40.2-112-40.2s-81.6 15-112 40.2c-30.4-25.2-69.4-40.2-112-40.2s-81.6 15-112 40.2c-30.4-25.2-69.4-40.2-112-40.2-59.6 0-112.2 29.6-144 74.8zM0 704c0 106 86 192 192 192h768c106 0 192-86 192-192v-512c0-106-86-192-192-192h-768c-106 0-192 86-192 192v512zM384 560v-80c0-1.4 0-2.6 0.2-4 1.8-14.4 13.2-26 27.8-27.8 1.4-0.2 2.6-0.2 4-0.2h96c1.4 0 2.6 0 4 0.2 14.4 1.8 26 13.2 27.8 27.8 0.2 1.4 0.2 2.6 0.2 4v80c0 21.8-8.8 41.6-22.8 56-14.6 14.8-34.8 24-57.2 24-30.4 0-56.8-17-70.4-42-6.2-11.4-9.6-24.2-9.6-38zM512 384h-96c-1.4 0-2.6 0-4-0.2-14.4-1.8-26-13.2-27.8-27.8-0.2-1.4-0.2-2.6-0.2-4v-16c0-21.8 8.8-41.6 22.8-56 14.6-14.8 34.8-24 57.2-24s42.6 9.2 57.2 24c14.2 14.4 22.8 34.2 22.8 56v16c0 1.4 0 2.6-0.2 4-1.8 14.4-13.2 26-27.8 27.8-1.4 0.2-2.6 0.2-4 0.2zM608 352v-16c0-21.8 8.8-41.6 22.8-56 14.6-14.8 34.8-24 57.2-24s42.6 9.2 57.2 24c14.2 14.4 22.8 34.2 22.8 56v16c0 1.4 0 2.6-0.2 4-1.8 14.4-13.2 26-27.8 27.8-1.2 0.2-2.6 0.2-4 0.2h-96c-1.4 0-2.6 0-4-0.2-14.4-1.8-26-13.2-27.8-27.8-0.2-1.4-0.2-2.6-0.2-4zM640 448h96c1.4 0 2.6 0 4 0.2 14.6 1.8 26 13.2 27.8 27.8 0.2 1.4 0.2 2.6 0.2 4v80c0 13.8-3.4 26.8-9.6 38-13.6 25-40 42-70.4 42-22.4 0-42.6-9.2-57.2-24-14.2-14.4-22.8-34.2-22.8-56v-80c0-1.4 0-2.6 0.2-4 1.8-14.4 13.2-26 27.8-27.8 1.4-0.2 2.6-0.2 4-0.2zM860 448.2c1.2-0.2 2.6-0.2 4-0.2h96c16.4 0 29.8 12.2 31.8 28 0.2 1.4 0.2 2.6 0.2 4v32c0 44.2-35.8 80-80 80-18.4 0-35.2-6.2-48.6-16.6-5.8-4.4-11-9.6-15.4-15.4-10-13.4-16-30-16-48v-32c0-1.4 0-2.6 0.2-4 1.8-14.4 13.2-26 27.8-27.8zM832.2 356c-0.2-1.4-0.2-2.6-0.2-4v-16c0-21.8 8.8-41.6 22.8-56 14.6-14.8 34.8-24 57.2-24 44.2 0 80 35.8 80 80v16c0 1.4 0 2.6-0.2 4-2 15.8-15.4 28-31.8 28h-96c-1.4 0-2.6 0-4-0.2-14.6-1.8-26-13.2-27.8-27.8zM292 383.8c-1.4 0.2-2.6 0.2-4 0.2h-96c-16.4 0-29.8-12.2-31.8-28-0.2-1.4-0.2-2.6-0.2-4v-16c0-44.2 35.8-80 80-80 22.4 0 42.6 9.2 57.2 24 14.2 14.4 22.8 34.2 22.8 56v16c0 1.4 0 2.6-0.2 4-1.8 14.4-13.2 26-27.8 27.8zM319.8 476c0.2 1.4 0.2 2.6 0.2 4v32c0 18-6 34.6-16 48-4.4 5.8-9.6 11-15.4 15.4-13.4 10.4-30.4 16.6-48.6 16.6-44.2 0-80-35.8-80-80v-32c0-1.4 0-2.6 0.2-4 2-15.8 15.4-28 31.8-28h96c1.4 0 2.6 0 4 0.2 14.4 1.8 26 13.2 27.8 27.8z" />
<glyph unicode="&#xe92a;" glyph-name="droplet-degree" d="M384 32c-159 0-288 129-288 288 0 26 10.2 67 34 122.2 23 53.2 55.2 111.6 91 169.4 58 93.6 122 180.4 163 234 41-53.4 105.2-140.4 163-234 35.8-57.8 68-116 91-169.4 23.8-55.2 34-96.4 34-122.2 0-159-129-288-288-288zM0 320c0-212 172-384 384-384s384 172 384 384c0 182.4-260.4 524.6-333.2 616.6-12 15-29.8 23.4-49 23.4h-3.6c-19.2 0-37-8.4-49-23.4-72.8-92-333.2-434.2-333.2-616.6zM800 736c0 35.346 28.654 64 64 64s64-28.654 64-64v0c0-35.346-28.654-64-64-64s-64 28.654-64 64v0zM1024 736c0 88.366-71.634 160-160 160s-160-71.634-160-160v0c0-88.366 71.634-160 160-160s160 71.634 160 160v0z" />
<glyph unicode="&#xe92b;" glyph-name="thumbs-down" d="M647.6 5.6c-76.4-21.8-156.2 22.4-178 98.8l-11.4 40c-7.4 26-20.8 50-39 70l-102.6 112.8c-17.8 19.6-16.4 50 3.2 67.8s50 16.4 67.8-3.2l102.6-112.8c28.2-31 48.8-68 60.2-108.2l11.4-40c7.2-25.4 33.8-40.2 59.4-33s40.2 33.8 33 59.4l-11.4 40c-11.4 39.8-29.4 77.4-53.2 111-10.4 14.6-11.6 33.8-3.4 49.8s24.6 26 42.6 26h267.2c17.6 0 32 14.4 32 32 0 13.6-8.6 25.4-20.8 30-14.8 5.6-26 18-29.8 33.4s0.2 31.6 10.6 43.4c5 5.6 8 13 8 21.2 0 15.6-11.2 28.6-26 31.4-16.4 3.2-30.2 14.6-36 30.4s-3.2 33.4 7.2 46.6c4.2 5.4 6.8 12.2 6.8 19.8 0 13.4-8.4 25.2-20.4 29.8-23 9-35.4 33.8-28.8 57.6 0.8 2.6 1.2 5.6 1.2 8.6 0 17.6-14.4 32-32 32h-195c-25.2 0-50-7.4-71-21.4l-123.4-82.2c-22-14.8-51.8-8.8-66.6 13.4s-8.8 51.8 13.4 66.6l123.4 82.2c36.8 24.6 80 37.6 124.2 37.6h195c69.4 0 125.8-55.2 128-124 29.2-23.4 48-59.4 48-100 0-9-1-17.6-2.6-26 30.8-23.4 50.6-60.4 50.6-102 0-13-2-25.6-5.6-37.4 23.2-23.6 37.6-55.6 37.6-91 0-70.6-57.2-128-128-128h-184.6c9.4-20.8 17.4-42.4 23.6-64.4l11.4-40c21.8-76.4-22.4-156.2-98.8-178zM64 192c-35.4 0-64 28.6-64 64v448c0 35.4 28.6 64 64 64h128c35.4 0 64-28.6 64-64v-448c0-35.4-28.6-64-64-64h-128z" />
<glyph unicode="&#xe92c;" glyph-name="stairs" horiz-adv-x="1152" d="M768 848c0 26.6 21.4 48 48 48h288c26.6 0 48-21.4 48-48s-21.4-48-48-48h-240v-240c0-26.6-21.4-48-48-48h-208v-208c0-26.6-21.4-48-48-48h-208v-208c0-26.6-21.4-48-48-48h-256c-26.6 0-48 21.4-48 48s21.4 48 48 48h208v208c0 26.6 21.4 48 48 48h208v208c0 26.6 21.4 48 48 48h208v240z" />
<glyph unicode="&#xe92d;" glyph-name="video-slash" horiz-adv-x="1280" d="M10.2 941.6c16.4 20.8 46.6 24.6 67.4 8.2l150.2-117.8h476.2c70.6 0 128-57.4 128-128v-345.6l288-225.6v530l-224-100.8v105.2l208.6 93.8c10.2 4.6 21.2 7 32.4 7 43.6 0 79-35.4 79-79v-631.6l45.6-35.8c20.8-16.4 24.6-46.6 8.2-67.4s-46.6-24.6-67.4-8.2l-1184 928.2c-20.8 16.4-24.6 46.6-8.2 67.4zM736 433.8v270.2c0 17.6-14.4 32-32 32h-353.6l385.6-302.2zM64 704c0 4.4 0.2 8.8 0.6 13l95.4-75v-450c0-17.6 14.4-32 32-32h512c16.4 0 30 12.4 31.8 28.2l78.2-61.6c-22.4-37.4-63.2-62.6-110-62.6h-512c-70.6 0-128 57.4-128 128v512z" />
<glyph unicode="&#xe92e;" glyph-name="border-center-h" horiz-adv-x="896" d="M64 0c35.346 0 64 28.654 64 64s-28.654 64-64 64v0c-35.346 0-64-28.654-64-64s28.654-64 64-64v0zM256 0c35.346 0 64 28.654 64 64s-28.654 64-64 64v0c-35.346 0-64-28.654-64-64s28.654-64 64-64v0zM256 768c35.346 0 64 28.654 64 64s-28.654 64-64 64v0c-35.346 0-64-28.654-64-64s28.654-64 64-64v0zM640 128c-35.346 0-64-28.654-64-64s28.654-64 64-64v0c35.346 0 64 28.654 64 64s-28.654 64-64 64v0zM640 768c35.346 0 64 28.654 64 64s-28.654 64-64 64v0c-35.346 0-64-28.654-64-64s28.654-64 64-64v0zM448 128c-35.346 0-64-28.654-64-64s28.654-64 64-64v0c35.346 0 64 28.654 64 64s-28.654 64-64 64v0zM448 768c35.346 0 64 28.654 64 64s-28.654 64-64 64v0c-35.346 0-64-28.654-64-64s28.654-64 64-64v0zM832 128c-35.346 0-64-28.654-64-64s28.654-64 64-64v0c35.346 0 64 28.654 64 64s-28.654 64-64 64v0zM832 896c-35.346 0-64-28.654-64-64s28.654-64 64-64v0c35.346 0 64 28.654 64 64s-28.654 64-64 64v0zM64 768c35.346 0 64 28.654 64 64s-28.654 64-64 64v0c-35.346 0-64-28.654-64-64s28.654-64 64-64v0zM448 320c-35.346 0-64-28.654-64-64s28.654-64 64-64v0c35.346 0 64 28.654 64 64s-28.654 64-64 64v0zM832 192c35.346 0 64 28.654 64 64s-28.654 64-64 64v0c-35.346 0-64-28.654-64-64s28.654-64 64-64v0zM64 320c-35.346 0-64-28.654-64-64s28.654-64 64-64v0c35.346 0 64 28.654 64 64s-28.654 64-64 64v0zM832 576c35.346 0 64 28.654 64 64s-28.654 64-64 64v0c-35.346 0-64-28.654-64-64s28.654-64 64-64v0zM64 704c-35.346 0-64-28.654-64-64s28.654-64 64-64v0c35.346 0 64 28.654 64 64s-28.654 64-64 64v0zM448 576c35.346 0 64 28.654 64 64s-28.654 64-64 64v0c-35.346 0-64-28.654-64-64s28.654-64 64-64v0zM48 496c-26.6 0-48-21.4-48-48s21.4-48 48-48h800c26.6 0 48 21.4 48 48s-21.4 48-48 48h-800z" />
<glyph unicode="&#xe92f;" glyph-name="pen-paintbrush" horiz-adv-x="1152" d="M136.8 238.2l-46-156.2-24.8-84.4c-5-16.8-0.4-35 12.2-47.4s30.6-17 47.4-12.2l240.6 70.8c24.8 7.2 47.4 19.8 66.8 36.8 2.8 2.4 5.4 5 8 7.6l608.4 608.2c43.8 43.8 49.2 111.2 16.4 161-4.6 7-10.2 13.8-16.4 20l-78.8 79c-50 50-131 50-181 0l-608.4-608.4c-20.8-20.8-36-46.6-44.4-74.8zM228.8 211.2c3.4 11.2 9 21.6 16.8 30.4 1.2 1.2 2.2 2.4 3.4 3.6l457 456.8 124-124-456.8-457c-9.4-9.4-21.2-16.4-34-20.2l-156.4-46 32.2 109.6 13.8 46.8zM569.2 68.4c39.6-78.6 120.8-132.4 214.6-132.4h304c35.4 0 64 28.6 64 64s-28.6 64-64 64h-12c-36.2 0-60.2 39.6-54.8 75.2 1.8 12 2.8 24.2 2.8 36.8 0 93.8-53.8 175-132.2 214.6l-74.4-74.4c63.4-15 110.6-72 110.6-140.2 0-7.6-0.6-15-1.6-22.2-6.6-42.8 4.4-86.2 27.6-120l1.4-1.8h-171.4c-68 0-125 47.2-140.2 110.6l-74.4-74.4zM272 912c-61.8 61.8-162.2 61.8-224 0s-61.8-162.2 0-224l197.4-197.4 67.8 67.8-197.4 197.4c-24.4 24.4-24.4 63.8 0 88.2s63.8 24.4 88.2 0l197.4-197.4 67.8 67.8-197.2 197.6z" />
<glyph unicode="&#xe930;" glyph-name="file-medical" horiz-adv-x="768" d="M128 32c-17.6 0-32 14.4-32 32v768c0 17.6 14.4 32 32 32h320v-160c0-35.4 28.6-64 64-64h160v-576c0-17.6-14.4-32-32-32h-512zM128 960c-70.6 0-128-57.4-128-128v-768c0-70.6 57.4-128 128-128h512c70.6 0 128 57.4 128 128v587c0 34-13.4 66.6-37.4 90.6l-181.2 181c-24 24-56.4 37.4-90.4 37.4h-331zM320 480v-96h-96c-17.6 0-32-14.4-32-32v-64c0-17.6 14.4-32 32-32h96v-96c0-17.6 14.4-32 32-32h64c17.6 0 32 14.4 32 32v96h96c17.6 0 32 14.4 32 32v64c0 17.6-14.4 32-32 32h-96v96c0 17.6-14.4 32-32 32h-64c-17.6 0-32-14.4-32-32z" />
<glyph unicode="&#xe931;" glyph-name="fire-burner" horiz-adv-x="1280" d="M587 952.4c39.4-35.6 76.4-74 111-115.4 15.8 19.8 33.6 41.4 53 59 11.2 10.2 28.8 10.2 40 0 49.4-45.4 91.2-105.4 120.8-162.2 29-56 48.4-117.6 48.4-158-0.2-175.8-142.8-319.8-320.2-319.8-179.4 0-320 144.2-320 319.6 0 52.8 25.4 121.4 64.8 185.2 40 64.8 96.2 132.2 162.8 191.6 5.6 5 12.8 7.6 20 7.4 7 0 14-2.6 19.6-7.6zM740 414c60 42 76 126 40 192-4 8-8 16-14 24l-72-84s-116 148-124 158c-60-74-90-116-90-164 0-98 72-156 162-156 36 0 68 10 98 30zM64 400c0 26.6 21.4 48 48 48h96c26.6 0 48-21.4 48-48s-21.4-48-48-48h-48v-160h960v160h-48c-26.6 0-48 21.4-48 48s21.4 48 48 48h96c26.6 0 48-21.4 48-48v-208c35.4 0 64-28.6 64-64v-128c0-35.4-28.6-64-64-64h-1152c-35.4 0-64 28.6-64 64v128c0 35.4 28.6 64 64 64v208zM96 32h232.6c-5.4 9.4-8.6 20.4-8.6 32s3.2 22.6 8.6 32h-232.6v-64zM439.4 32h145.2c-5.4 9.4-8.6 20.4-8.6 32s3.2 22.6 8.6 32h-145.2c5.4-9.4 8.6-20.4 8.6-32s-3.2-22.6-8.6-32zM695.4 32h145.2c-5.4 9.4-8.6 20.4-8.6 32s3.2 22.6 8.6 32h-145.2c5.4-9.4 8.6-20.4 8.6-32s-3.2-22.6-8.6-32zM1184 32v64h-232.6c5.4-9.4 8.6-20.4 8.6-32s-3.2-22.6-8.6-32h232.6z" />
<glyph unicode="&#xe932;" glyph-name="mug-tea-saucer" horiz-adv-x="1280" d="M288 384c0-53 43-96 96-96h384c53 0 96 43 96 96v416h-368v-21.4c0-17 6.8-33.2 18.8-45.2l42.6-42.6c12-12 18.8-28.2 18.8-45.2v-133.6c0-35.4-28.6-64-64-64h-96.2c-35.4 0-64 28.6-64 64v133.4c0 17 6.8 33.2 18.8 45.2l42.6 42.6c12 12 18.8 28.2 18.8 45.2v21.6h-144.2v-416zM192 832c0 35.4 28.6 64 64 64h768c141.4 0 256-114.6 256-256s-114.6-256-256-256h-64c0-106-86-192-192-192h-384c-106 0-192 86-192 192v448zM960 480h64c88.4 0 160 71.6 160 160s-71.6 160-160 160h-64v-320zM48 96h1056c26.6 0 48-21.4 48-48s-21.4-48-48-48h-1056c-26.6 0-48 21.4-48 48s21.4 48 48 48z" />
<glyph unicode="&#xe933;" glyph-name="road-barrier" horiz-adv-x="1280" d="M48 896c26.6 0 48-21.4 48-48v-48h1088v48c0 26.6 21.4 48 48 48s48-21.4 48-48v-800c0-26.6-21.4-48-48-48s-48 21.4-48 48v304h-1088v-304c0-26.6-21.4-48-48-48s-48 21.4-48 48v800c0 26.6 21.4 48 48 48zM1184 448v256h-42.4l-128-256h170.4zM96 448h42.4l128 256h-170.4v-256zM778.4 704h-148.8l-128-256h148.6l128 256zM757.6 448h148.6l128 256h-148.6l-128-256zM373.6 704l-128-256h148.6l128 256h-148.6z" />
<glyph unicode="&#xe934;" glyph-name="square-r" horiz-adv-x="896" d="M128 800c-17.6 0-32-14.4-32-32v-640c0-17.6 14.4-32 32-32h640c17.6 0 32 14.4 32 32v640c0 17.6-14.4 32-32 32h-640zM0 768c0 70.6 57.4 128 128 128h640c70.6 0 128-57.4 128-128v-640c0-70.6-57.4-128-128-128h-640c-70.6 0-128 57.4-128 128v640zM304 704h208c88.4 0 160-71.6 160-160 0-73.2-49.2-135-116.4-154l90.8-121.2c16-21.2 11.6-51.2-9.6-67.2s-51.2-11.6-67.2 9.6l-129.6 172.8h-88v-144c0-26.6-21.4-48-48-48s-48 21.4-48 48v416c0 26.6 21.4 48 48 48zM464 480h48c35.4 0 64 28.6 64 64s-28.6 64-64 64h-160v-128h112z" />
<glyph unicode="&#xe935;" glyph-name="hexagon-plus" d="M34.2 376c-25.8 44.6-25.8 99.4 0 144l176.6 305.8c25.8 44.6 73.2 72 124.8 72h353c51.4 0 99-27.4 124.8-72l176.4-305.8c25.8-44.6 25.8-99.4 0-144l-176.6-305.8c-25.8-44.6-73.2-72-124.8-72h-353c-51.4 0-99 27.4-124.8 72l-176.4 305.8zM117.4 472c-8.6-14.8-8.6-33.2 0-48l176.6-305.8c8.6-14.8 24.4-24 41.6-24h353c17.2 0 33 9.2 41.6 24l176.6 305.8c8.6 14.8 8.6 33.2 0 48l-176.6 305.8c-8.6 14.8-24.4 24-41.6 24h-353.2c-17.2 0-33-9.2-41.6-24l-176.6-305.8zM464 272v128h-128c-26.6 0-48 21.4-48 48s21.4 48 48 48h128v128c0 26.6 21.4 48 48 48s48-21.4 48-48v-128h128c26.6 0 48-21.4 48-48s-21.4-48-48-48h-128v-128c0-26.6-21.4-48-48-48s-48 21.4-48 48z" />
<glyph unicode="&#xe936;" glyph-name="speaker" horiz-adv-x="768" d="M640 864c17.6 0 32-14.4 32-32v-768c0-17.6-14.4-32-32-32h-512c-17.6 0-32 14.4-32 32v768c0 17.6 14.4 32 32 32h512zM128 960c-70.6 0-128-57.4-128-128v-768c0-70.6 57.4-128 128-128h512c70.6 0 128 57.4 128 128v768c0 70.6-57.4 128-128 128h-512zM464 720c0 44.183-35.817 80-80 80s-80-35.817-80-80v0c0-44.183 35.817-80 80-80s80 35.817 80 80v0zM384 96c114.875 0 208 93.125 208 208s-93.125 208-208 208v0c-114.875 0-208-93.125-208-208s93.125-208 208-208v0zM272 304c0 61.856 50.144 112 112 112s112-50.144 112-112v0c0-61.856-50.144-112-112-112s-112 50.144-112 112v0z" />
<glyph unicode="&#xe937;" glyph-name="mars-stroke-up" horiz-adv-x="640" d="M351.2 948.4c-18 15.4-44.6 15.4-62.4 0l-112-96c-20.2-17.2-22.4-47.6-5.2-67.6s47.6-22.4 67.6-5.2l32.8 28v-103.6h-64c-26.6 0-48-21.4-48-48s21.4-48 48-48h64v-35.6c-154-23.2-272-156-272-316.4 0-176.8 143.2-320 320-320s320 143.2 320 320c0 160.4-118 293.2-272 316.4v35.6h64c26.6 0 48 21.4 48 48s-21.4 48-48 48h-64v103.6l32.8-28c20.2-17.2 50.4-15 67.6 5.2s15 50.4-5.2 67.6l-112 96zM320 480c123.712 0 224-100.288 224-224s-100.288-224-224-224v0c-123.712 0-224 100.288-224 224s100.288 224 224 224v0z" />
<glyph unicode="&#xe938;" glyph-name="clock-one" d="M928 448c0 229.75-186.25 416-416 416s-416-186.25-416-416v0c0-229.75 186.25-416 416-416s416 186.25 416 416v0zM0 448c0 282.77 229.23 512 512 512s512-229.23 512-512v0c0-282.77-229.23-512-512-512s-512 229.23-512 512v0zM560 720v-113.4l40 60c14.8 22 44.6 28 66.6 13.4s28-44.6 13.4-66.6l-128-192c-11.8-17.6-33.6-25.4-53.8-19.4s-34 24.8-34 46v272c0 26.6 21.4 48 48 48s48-21.4 48-48z" />
<glyph unicode="&#xe939;" glyph-name="stomach" d="M368 912c0 26.6-21.4 48-48 48s-48-21.4-48-48v-144c0-132.6 107.4-240 240-240h0.4c-0.4-5.2-0.4-10.6-0.4-16v-128c0-79.6-64.4-144-144-144h-128c-132.6 0-240-107.4-240-240v-16c0-26.6 21.4-48 48-48s48 21.4 48 48v16c0 70.6 57.4 128 128 128 19.2 0 38-7 61.2-22.2 17.6-11.4 34.2-25.2 53.8-41.4 8.4-6.8 17.2-14.2 27-22 63.2-50.4 145.8-106.4 274-106.4 212 0 384 172 384 384v192c0 141.4-114.6 256-256 256-101.2 0-188.8-58.8-230.2-144h-25.8c-79.6 0-144 64.4-144 144v144zM404 135.4c-4 3.2-8 6.6-12 9.8 92.4 9.2 169.2 70.8 200.8 154.6 24.4 13.8 45.2 16 65.4 13.2 24.8-3.4 49.8-14.2 82.2-28.8l2.4-1.2c29.6-13.2 66.2-29.6 106-35.2 23-3.2 46.6-2.6 70.8 3-30.8-125.6-144.4-218.8-279.6-218.8-95.8 0-157.2 40-214 85.4-7 5.6-14.4 11.6-21.8 17.8v0 0 0zM928 356.8c-24.8-14.2-45.8-16.4-66.2-13.6-24.8 3.4-49.8 14.2-82.2 28.8l-2.4 1.2c-29.6 13.2-66.2 29.6-106 35.2-20.6 2.8-41.6 2.8-63.2-1.4v105c0 88.4 71.6 160 160 160s160-71.6 160-160v-155.2z" />
<glyph unicode="&#xe93a;" glyph-name="building-user" horiz-adv-x="1280" d="M128 864h512c17.6 0 32-14.4 32-32v-703.4c22.6 40 55.8 73.4 96 95.8v607.6c0 70.6-57.4 128-128 128h-512c-70.6 0-128-57.4-128-128v-768c0-70.6 57.4-128 128-128h512c6.4 0 12.8 0.4 19 1.4-12 20-19 43.6-19 68.8 0 8.8 0.4 17.4 1.4 26-0.4 0-0.8 0-1.4 0h-160v127.8c0 53-43 96-96 96s-96-43-96-96v-128h-160c-17.6 0-32 14.4-32 32v768c0 17.6 14.4 32 32 32zM176 752v-96c0-17.6 14.4-32 32-32h96c17.6 0 32 14.4 32 32v96c0 17.6-14.4 32-32 32h-96c-17.6 0-32-14.4-32-32zM464 784c-17.6 0-32-14.4-32-32v-96c0-17.6 14.4-32 32-32h96c17.6 0 32 14.4 32 32v96c0 17.6-14.4 32-32 32h-96zM176 496v-96c0-17.6 14.4-32 32-32h96c17.6 0 32 14.4 32 32v96c0 17.6-14.4 32-32 32h-96c-17.6 0-32-14.4-32-32zM464 528c-17.6 0-32-14.4-32-32v-96c0-17.6 14.4-32 32-32h96c17.6 0 32 14.4 32 32v96c0 17.6-14.4 32-32 32h-96zM1152 416c0 88.366-71.634 160-160 160s-160-71.634-160-160v0c0-88.366 71.634-160 160-160s160 71.634 160 160v0zM704 5.8c0-38.6 31.2-69.8 69.8-69.8h436.4c38.6 0 69.8 31.2 69.8 69.8 0 102.8-83.4 186.2-186.2 186.2h-203.6c-102.8 0-186.2-83.4-186.2-186.2z" />
<glyph unicode="&#xe93b;" glyph-name="arrow-down-arrow-up" horiz-adv-x="1152" d="M94 206l192-192c18.8-18.8 49.2-18.8 67.8 0l192 192c18.8 18.8 18.8 49.2 0 67.8s-49.2 18.8-67.8 0l-110-110v684.2c0 26.6-21.4 48-48 48s-48-21.4-48-48v-684.2l-110 110.2c-18.8 18.8-49.2 18.8-67.8 0s-18.8-49.2 0-67.8zM798 882l-192-192c-18.8-18.8-18.8-49.2 0-67.8s49.2-18.8 67.8 0l110 110v-684.2c0-26.6 21.4-48 48-48s48 21.4 48 48v684.2l110-110c18.8-18.8 49.2-18.8 67.8 0s18.8 49.2 0 67.8l-191.6 192c-18.8 18.8-49.2 18.8-67.8 0z" />
<glyph unicode="&#xe93c;" glyph-name="cake-slice" d="M928 352v-96h-832v96h832zM96 128v64l832-0.8v-60c0-17.6-14.4-32-32-32h-768c-17.6 0-32 14.4-32 32zM592 896c-14.4 0-28.4-4.8-39.6-13.8l-528-416c-15.4-12-24.4-30.6-24.4-50.2v-288c0-70.6 57.4-128 128-128h768c70.6 0 128 57.2 128 128v320c0 148.6-65.6 261.6-152.2 336.4-84.6 73.2-191.2 111.6-279.8 111.6z" />
<glyph unicode="&#xe93d;" glyph-name="user-unlock" horiz-adv-x="1280" d="M448 544c88.366 0 160 71.634 160 160s-71.634 160-160 160v0c-88.366 0-160-71.634-160-160s71.634-160 160-160v0zM448 960c141.385 0 256-114.615 256-256s-114.615-256-256-256v0c-141.385 0-256 114.615-256 256s114.615 256 256 256v0zM98.6 32h669.4v-32c0-23.4 6.2-45.2 17.2-64h-725.8c-32.8 0-59.4 26.6-59.4 59.4 0 197 159.6 356.6 356.6 356.6h182.8c87.2 0 167.2-31.4 229.2-83.4-0.4-4.2-0.6-8.4-0.6-12.6v-135.4c-44.2 80.8-130 135.4-228.6 135.4h-182.8c-131.4 0-240.2-97.4-258-224zM992 416v-96h224c35.4 0 64-28.6 64-64v-256c0-35.4-28.6-64-64-64h-320c-35.4 0-64 28.6-64 64v256c0 35.4 28.6 64 64 64v96c0 88.4 71.6 160 160 160s160-71.6 160-160h-96c0 35.4-28.6 64-64 64s-64-28.6-64-64z" />
<glyph unicode="&#xe93e;" glyph-name="badge-percent" d="M400.6 797c21.2 40 63.2 67 111.4 67s90.2-27 111.4-67c10.8-20.4 34.6-30.2 56.6-23.4 43.2 13.2 92.2 2.8 126.2-31.4s44.6-83 31.4-126.2c-6.8-22 3-45.8 23.4-56.4 40-21.2 67-63.2 67-111.4s-27-90.2-67-111.4c-20.4-10.8-30.2-34.4-23.4-56.4 13.2-43.2 2.8-92.2-31.4-126.2s-83-44.6-126.2-31.4c-22 6.8-45.8-3-56.4-23.4-21.2-40-63.2-67-111.4-67s-90.2 27-111.4 67c-10.8 20.4-34.4 30.2-56.4 23.4-43.2-13.2-92.2-2.8-126.2 31.4s-45 82.6-31.8 125.8c6.8 22-3 45.8-23.4 56.4-40 21.4-67 63.4-67 111.6s27 90.2 67 111.4c20.4 10.8 30.2 34.6 23.4 56.6-13.2 43.2-2.8 92.2 31.4 126.2s83 44.6 126.2 31.4c22-6.8 45.8 3 56.4 23.4zM512 960c-71.8 0-135.6-34-176.2-86.8-66 8.6-135.2-12.4-186-63.2s-71.8-120-63.2-186c-52.6-40.4-86.6-104.2-86.6-176s34-135.6 86.8-176.2c-8.6-66 12.4-135.2 63.2-186s120-71.8 186-63.2c40.4-52.6 104.2-86.6 176-86.6s135.6 34 176.2 86.8c66-8.6 135.2 12.4 186 63.2s71.8 120 63.2 186c52.6 40.4 86.6 104.2 86.6 176s-34 135.6-86.8 176.2c8.6 66-12.4 135.2-63.2 186s-120 71.8-186 63.2c-40.4 52.6-104.2 86.6-176 86.6zM384 512c35.346 0 64 28.654 64 64s-28.654 64-64 64v0c-35.346 0-64-28.654-64-64s28.654-64 64-64v0zM704 320c0 35.346-28.654 64-64 64s-64-28.654-64-64v0c0-35.346 28.654-64 64-64s64 28.654 64 64v0zM674 542c18.8 18.8 18.8 49.2 0 67.8s-49.2 18.8-67.8 0l-256.2-255.8c-18.8-18.8-18.8-49.2 0-67.8s49.2-18.8 67.8 0l256.2 255.8z" />
<glyph unicode="&#xe93f;" glyph-name="code-pull-request-closed" d="M288 800c0 35.346-28.654 64-64 64s-64-28.654-64-64v0c0-35.346 28.654-64 64-64s64 28.654 64 64v0zM384 800c0-71.6-47-132.2-112-152.6v-398.8c65-20.4 112-81 112-152.6 0-88.4-71.6-160-160-160s-160 71.6-160 160c0 71.6 47 132.2 112 152.6v398.8c-65 20.4-112 81-112 152.6 0 88.4 71.6 160 160 160s160-71.6 160-160zM224 32c35.346 0 64 28.654 64 64s-28.654 64-64 64v0c-35.346 0-64-28.654-64-64s28.654-64 64-64v0zM800 32c35.346 0 64 28.654 64 64s-28.654 64-64 64v0c-35.346 0-64-28.654-64-64s28.654-64 64-64v0zM800-64c-88.4 0-160 71.6-160 160 0 71.6 47 132.2 112 152.6v263.4c0 26.6 21.4 48 48 48s48-21.4 48-48v-263.4c65-20.4 112-81 112-152.6 0-88.4-71.6-160-160-160zM654 946c18.8 18.8 49.2 18.8 67.8 0l78-78 78.2 78c18.8 18.8 49.2 18.8 67.8 0s18.8-49.2 0-67.8l-78-78 78-78c18.8-18.8 18.8-49.2 0-67.8s-49.2-18.8-67.8 0l-78 78-78-78c-18.8-18.8-49.2-18.8-67.8 0s-18.8 49.2 0 67.8l78 78-78.2 77.8c-18.8 18.8-18.8 49.2 0 67.8z" />
<glyph unicode="&#xe940;" glyph-name="plug-circle-exclamation" horiz-adv-x="1152" d="M256 912c0 26.6-21.4 48-48 48s-48-21.4-48-48v-176h96v176zM608 912c0 26.6-21.4 48-48 48s-48-21.4-48-48v-176h96v176zM48 672c-26.6 0-48-21.4-48-48s21.4-48 48-48h16v-128c0-160.4 118-293.2 272-316.4v-147.6c0-26.6 21.4-48 48-48s48 21.4 48 48v147.6c30.4 4.6 59.4 13.4 86.2 25.8-4.2 21.6-6.2 43.8-6.2 66.6 0 14.2 0.8 28.2 2.4 41.8-36.6-26.2-81.8-41.8-130.4-41.8-123.8 0-224 100.2-224 224v128h448v-110.4c27.6 29.2 60 53.6 96 72v38.4h16c26.6 0 48 21.4 48 48s-21.4 48-48 48h-672zM864-64c159.058 0 288 128.942 288 288s-128.942 288-288 288v0c-159.058 0-288-128.942-288-288s128.942-288 288-288v0zM864 128c26.51 0 48-21.49 48-48s-21.49-48-48-48v0c-26.51 0-48 21.49-48 48s21.49 48 48 48v0zM864 416c17.6 0 32-14.4 32-32v-160c0-17.6-14.4-32-32-32s-32 14.4-32 32v160c0 17.6 14.4 32 32 32z" />
<glyph unicode="&#xe941;" glyph-name="ampersand" horiz-adv-x="896" d="M356 800h88.8c54.8 0 99.4-44.4 99.4-99.4 0-32.4-15.8-62.8-42.4-81.4l-122.8-86-94.4 97c-18.4 18.8-28.6 43.8-28.6 69.8 0 55.2 44.8 100 100 100zM446.6 463.6l110.2 77c52.2 36.6 83.4 96.2 83.4 160-0.2 108-87.6 195.4-195.6 195.4h-88.6c-108.2 0-196-87.8-196-196 0-51 20-100 55.4-136.6l83.6-86-147.2-103c-55-38.4-87.8-101.4-87.8-168.6 0-113.6 92.2-205.8 205.8-205.8h155.6c70.2 0 135.6 35.4 174 94.2l29.2 44.6 120.8-124.2c18.4-19 48.8-19.4 67.8-1s19.4 48.8 1 67.8l-135.8 139.6 141.6 216.6c14.6 22.2 8.2 52-14 66.4s-52 8.2-66.4-14l-129.6-198.4-167.4 172zM367 407.8l193.2-198.6-41-62.6c-20.6-31.6-56-50.8-93.8-50.8h-155.6c-60.6 0.2-109.8 49.4-109.8 110 0 35.8 17.4 69.4 46.8 90l160 112z" />
<glyph unicode="&#xe942;" glyph-name="microwave" horiz-adv-x="1152" d="M1024 800c17.6 0 32-14.4 32-32v-576c0-17.6-14.4-32-32-32h-896c-17.6 0-32 14.4-32 32v576c0 17.6 14.4 32 32 32h896zM128 896c-70.6 0-128-57.4-128-128v-576c0-70.6 57.4-128 128-128v-16c0-26.6 21.4-48 48-48s48 21.4 48 48v16h704v-16c0-26.6 21.4-48 48-48s48 21.4 48 48v16c70.6 0 128 57.4 128 128v576c0 70.6-57.4 128-128 128h-896zM864 688v-416c0-26.6 21.4-48 48-48s48 21.4 48 48v416c0 26.6-21.4 48-48 48s-48-21.4-48-48zM240 704c-26.6 0-48-21.4-48-48v-352c0-26.6 21.4-48 48-48h480c26.6 0 48 21.4 48 48v352c0 26.6-21.4 48-48 48h-480z" />
<glyph unicode="&#xe943;" glyph-name="mailbox" horiz-adv-x="1152" d="M96 544c0 106 86 192 192 192s192-86 192-192v-384h-352c-17.6 0-32 14.4-32 32v352zM480 64h544c70.6 0 128 57.4 128 128v352c0 159-129 288-288 288h-576c-159 0-288-129-288-288v-352c0-70.6 57.4-128 128-128h352zM576 544c0 73.8-27.8 141-73.4 192h361.4c106 0 192-86 192-192v-352c0-17.6-14.4-32-32-32h-448v384zM208 576c-26.6 0-48-21.4-48-48s21.4-48 48-48h160c26.6 0 48 21.4 48 48s-21.4 48-48 48h-160zM720 576c-26.6 0-48-21.4-48-48s21.4-48 48-48h112v-48c0-26.6 21.4-48 48-48h32c26.6 0 48 21.4 48 48v96c0 26.6-21.4 48-48 48h-192z" />
<glyph unicode="&#xe944;" glyph-name="messages" horiz-adv-x="1280" d="M96 816c0 26.6 21.4 48 48 48h544c26.6 0 48-21.4 48-48v-352c0-26.6-21.4-48-48-48h-256c-9.4 0-18.8-2.8-26.6-8l-117.4-78.4v38.4c0 26.6-21.4 48-48 48h-96c-26.6 0-48 21.4-48 48v352zM144 960c-79.6 0-144-64.4-144-144v-352c0-79.6 64.4-144 144-144h48v-80c0-17.8 9.8-34 25.4-42.4s34.6-7.4 49.2 2.4l180 120h241.4c79.6 0 144 64.4 144 144v352c0 79.6-64.4 144-144 144h-544zM512 208c0-79.6 64.4-144 144-144h177.4l180-120c14.8-9.8 33.6-10.8 49.2-2.4s25.4 24.6 25.4 42.4v80h48c79.6 0 144 64.4 144 144v352c0 79.6-64.4 144-144 144h-240v-96h240c26.6 0 48-21.4 48-48v-352c0-26.6-21.4-48-48-48h-96c-26.6 0-48-21.4-48-48v-38.4l-117.4 78.4c-7.8 5.2-17.2 8-26.6 8h-192c-26.6 0-48 21.4-48 48v48h-96v-48z" />
<glyph unicode="&#xe945;" glyph-name="screwdriver" d="M891.8 848.2l20.4-20.4-119.8-155.8h-56.4v56.4l155.8 119.8zM1014 802.8c14.8 19.2 13 46.2-4.2 63.2l-79.8 80c-17 17-44 18.8-63.2 4.2l-208-160c-11.8-9-18.8-23.2-18.8-38v-108.2l-171.2-171.2c13.4-8.4 26-18.6 37.6-30.2s21.8-24.4 30.2-37.6l171.2 171h108.2c15 0 29 7 38 18.8l160 208zM310.6 329.4c22.8 22.8 59.8 22.8 82.8 0s22.8-59.8 0-82.8l-201.4-201.4-82.8 82.8 201.4 201.4zM461.2 397.2c-60.4 60.4-158.2 60.4-218.6 0l-224-224c-25-25-25-65.6 0-90.6l128-128c25-25 65.6-25 90.6 0l224 224c60.4 60.4 60.4 158.2 0 218.6z" />
<glyph unicode="&#xe946;" glyph-name="arrow-turn-up" horiz-adv-x="768" d="M48 32c-26.6 0-48-21.4-48-48s21.4-48 48-48h208c97.2 0 176 78.8 176 176v684.2l174-174c18.8-18.8 49.2-18.8 67.8 0s18.8 49.2 0 67.8l-255.8 256c-18.8 18.8-49.2 18.8-67.8 0l-256.2-256c-18.8-18.8-18.8-49.2 0-67.8s49.2-18.8 67.8 0l174 174 0.2-684.2c0-44.2-35.8-80-80-80h-208z" />
<glyph unicode="&#xe947;" glyph-name="file-minus" horiz-adv-x="768" d="M128 32c-17.6 0-32 14.4-32 32v768c0 17.6 14.4 32 32 32h320v-160c0-35.4 28.6-64 64-64h160v-576c0-17.6-14.4-32-32-32h-512zM128 960c-70.6 0-128-57.4-128-128v-768c0-70.6 57.4-128 128-128h512c70.6 0 128 57.4 128 128v587c0 34-13.4 66.6-37.4 90.6l-181.2 181c-24 24-56.4 37.4-90.4 37.4h-331zM240 384c-26.6 0-48-21.4-48-48s21.4-48 48-48h288c26.6 0 48 21.4 48 48s-21.4 48-48 48h-288z" />
<glyph unicode="&#xe948;" glyph-name="sun-plant-wilt" horiz-adv-x="1280" d="M320 960.4c-16.8 0-32.4-8.8-41-23.2l-48.6-80.6-91.2 22.6c-16.4 4-33.6-0.8-45.4-12.6s-16.6-29.2-12.6-45.4l22.6-91.2-80.6-48.8c-14.4-8.6-23.2-24.2-23.2-41s8.8-32.4 23.2-41l80.4-48.6-22.6-91.4c-4-16.4 0.8-33.6 12.6-45.4s29.2-16.6 45.4-12.6l91.2 22.6 48.6-80.4c8.6-14.4 24.2-23.2 41-23.2s32.4 8.8 41 23.2l48.6 80.4 91.2-22.6c16.4-4 33.6 0.8 45.4 12.6s16.6 29.2 12.6 45.4l-22.6 91.2 80.4 48.6c14.4 8.6 23.2 24.2 23.2 41s-8.8 32.4-23.2 41l-80.4 48.6 22.6 91.2c4 16.4-0.8 33.6-12.6 45.4s-29.2 16.6-45.4 12.6l-90.8-22.2-48.6 80.6c-8.8 14.4-24.2 23.2-41.2 23.2zM320 819.6l25.8-42.6c10.8-18 32.2-26.8 52.6-21.8l48.4 12-12-48.4c-5-20.4 3.8-41.8 21.8-52.6l42.6-25.8-42.6-25.8c-18-10.8-26.8-32.2-21.8-52.6l12-48.4-48.4 12c-20.4 5-41.8-3.8-52.6-21.8l-25.8-43-25.8 42.6c-10.8 18-32.2 26.8-52.6 21.8l-48.4-12 12 48.4c5 20.4-3.8 41.8-21.8 52.6l-42.6 26 42.8 25.8c18 10.8 26.8 32.2 21.8 52.6l-12 48.4 48.4-12c20.4-5 41.8 3.8 52.6 21.8l25.6 42.6zM384 640c0 35.346-28.654 64-64 64s-64-28.654-64-64v0c0-35.346 28.654-64 64-64s64 28.654 64 64v0zM1008 608c0 35.4 28.6 64 64 64s64-28.6 64-64v-106.8c-29.6-15.4-48-46.2-48-89.2 0-33.6 32-88 74.8-134.4 11.6-12.4 31-12.4 42.4 0 42.8 46.4 74.8 101 74.8 134.4 0 43-18.4 74-48 89.2v106.8c0 88.4-71.6 160-160 160s-160-71.6-160-160v-45.4c-19.6 8.6-41.2 13.4-64 13.4-88.4 0-160-71.6-160-160v-42.8c-29.6-15.4-48-46.2-48-89.2 0-33.6 32-88 74.8-134.4 11.6-12.4 31-12.4 42.4 0 42.8 46.4 74.8 101 74.8 134.4 0 43-18.4 74-48 89.2v42.8c0 35.4 28.6 64 64 64s64-28.6 64-64v-384h-864c-26.6 0-48-21.4-48-48s21.4-48 48-48h1184c26.6 0 48 21.4 48 48s-21.4 48-48 48h-224v576z" />
<glyph unicode="&#xe949;" glyph-name="oven" horiz-adv-x="896" d="M704 864c53 0 96-43 96-96v-128h-704v128c0 53 43 96 96 96h512zM800 544v-480c0-17.6-14.4-32-32-32h-640c-17.6 0-32 14.4-32 32v480h704zM192 960c-106 0-192-86-192-192v-704c0-70.6 57.4-128 128-128h640c70.6 0 128 57.4 128 128v704c0 106-86 192-192 192h-512zM256 752c0 26.51-21.49 48-48 48s-48-21.49-48-48v0c0-26.51 21.49-48 48-48s48 21.49 48 48v0zM368 704c26.51 0 48 21.49 48 48s-21.49 48-48 48v0c-26.51 0-48-21.49-48-48s21.49-48 48-48v0zM576 752c0 26.51-21.49 48-48 48s-48-21.49-48-48v0c0-26.51 21.49-48 48-48s48 21.49 48 48v0zM688 704c26.51 0 48 21.49 48 48s-21.49 48-48 48v0c-26.51 0-48-21.49-48-48s21.49-48 48-48v0zM224 480c-35.4 0-64-28.6-64-64v-256c0-35.4 28.6-64 64-64h448c35.4 0 64 28.6 64 64v256c0 35.4-28.6 64-64 64h-448zM288 384h320c17.6 0 32-14.4 32-32s-14.4-32-32-32h-320c-17.6 0-32 14.4-32 32s14.4 32 32 32z" />
<glyph unicode="&#xe94a;" glyph-name="arrow-right" horiz-adv-x="896" d="M881.2 413.2c9.4 9 14.8 21.6 14.8 34.8s-5.4 25.6-14.8 34.8l-352 336c-19.2 18.4-49.6 17.6-67.8-1.6s-17.6-49.6 1.6-67.8l265.2-253.4h-680.2c-26.6 0-48-21.4-48-48s21.4-48 48-48h680.2l-265.4-253.2c-19.2-18.4-19.8-48.6-1.6-67.8s48.6-19.8 67.8-1.6l352 336z" />
<glyph unicode="&#xe94b;" glyph-name="objects-align-left" d="M0 912c0 26.6 21.4 48 48 48s48-21.4 48-48v-928c0-26.6-21.4-48-48-48s-48 21.4-48 48v928zM352 608h576v128h-576v-128zM256 736c0 53 43 96 96 96h576c53 0 96-43 96-96v-128c0-53-43-96-96-96h-576c-53 0-96 43-96 96v128zM352 160h320v128h-320v-128zM256 288c0 53 43 96 96 96h320c53 0 96-43 96-96v-128c0-53-43-96-96-96h-320c-53 0-96 43-96 96v128z" />
<glyph unicode="&#xe94c;" glyph-name="users-slash" horiz-adv-x="1280" d="M77.6 949.8c-20.8 16.4-51 12.6-67.4-8.2s-12.6-51 8.2-67.4l1184-928c20.8-16.4 51-12.6 67.4 8.2s12.6 51-8.2 67.4l-380.4 298.2h356.2c23.6 0 42.6 19.2 42.6 42.6 0 117.8-95.6 213.4-213.4 213.4h-85.2c-31.8 0-62-7-89.2-19.4 2.6-14.4 3.8-29.4 3.8-44.6 0-60.4-21-116-56-159.8l-50.4 39.4c26.6 33 42.4 74.8 42.4 120.4 0 106-86 192-192 192-62.2 0-117.4-29.6-152.6-75.4l-81.2 63.6c26 28.4 41.8 66.2 41.8 107.8 0 88.4-71.6 160-160 160-55.4 0-104.2-28.2-133-71l-77.4 60.8zM563 569.4c17.6 23.4 45.4 38.6 77 38.6 53 0 96-43 96-96 0-23.2-8.2-44.4-22-61l-151 118.4zM213.4 576c-117.8 0-213.4-95.6-213.4-213.4 0-23.4 19.2-42.6 42.6-42.6h426.8c0.4 0 0.8 0 1.4 0-41.2 36.4-70.4 85.6-81.6 141.6l-145.6 114.4h-30.2zM522.6 256c-147.2 0-266.6-119.4-266.6-266.6 0-29.4 23.8-53.4 53.4-53.4h661.2c21 0 39 12 47.8 29.6l-99.4 78.2c1.4-3.8 2.4-7.8 3.6-11.8h-565.2c19 73.6 85.8 128 165.2 128h234.8c5.2 0 10.2-0.2 15.2-0.6l-122.8 96.6h-127.2zM1024 640c88.366 0 160 71.634 160 160s-71.634 160-160 160v0c-88.366 0-160-71.634-160-160s71.634-160 160-160v0z" />
<glyph unicode="&#xe94d;" glyph-name="face-hushed" d="M928 448c0 229.75-186.25 416-416 416s-416-186.25-416-416v0c0-229.75 186.25-416 416-416s416 186.25 416 416v0zM0 448c0 282.77 229.23 512 512 512s512-229.23 512-512v0c0-282.77-229.23-512-512-512s-512 229.23-512 512v0zM352.8 512c35.346 0 64-28.654 64-64s-28.654-64-64-64v0c-35.346 0-64 28.654-64 64s28.654 64 64 64v0zM608.8 448c0 35.346 28.654 64 64 64s64-28.654 64-64v0c0-35.346-28.654-64-64-64s-64 28.654-64 64v0zM358 638.2c-42.4-5.6-81.2-24.8-112.2-53.6-13-12-33.2-11.4-45.2 1.6s-11.4 33.2 1.6 45.2c40.2 37.4 91 63 147.4 70.4 11.2 1.4 22.8 2.2 34.4 2.2 17.6 0 32-14.4 32-32s-14.4-32-32-32c-8.8 0-17.6-0.6-26-1.8zM640 640c-17.6 0-32 14.4-32 32s14.4 32 32 32c11.6 0 23.2-0.8 34.4-2.2 56.4-7.4 107.4-32.8 147.4-70.4 13-12 13.6-32.4 1.6-45.2s-32.4-13.6-45.2-1.6c-31 29-69.6 48-112.2 53.6-8.6 1.2-17.2 1.8-26 1.8zM512 288c53.019 0 96-42.981 96-96s-42.981-96-96-96v0c-53.019 0-96 42.981-96 96s42.981 96 96 96v0z" />
<glyph unicode="&#xe94e;" glyph-name="boot" d="M64 960h640c35.4 0 64-28.6 64-64v-128c0-35.4-28.6-64-64-64h-704v192c0 35.4 28.6 64 64 64zM0 32v608h96v-512h832v113.2c0 42.4-27.8 79.8-68.4 92l-169.6 50.8h-210c-17.6 0-32 14.4-32 32s14.4 32 32 32h133.4c-3.6 10-5.4 20.8-5.4 32v32h-128c-17.6 0-32 14.4-32 32s14.4 32 32 32h128v64h96v-160l183.2-55c81.2-24.4 136.8-99.2 136.8-184v-209h-0.8c-3-24-13.8-46.6-31.2-64-20.4-20.4-48.2-32-77.2-32h-29.8c-34 0-66.6 13.4-90.6 37.4l-15.2 15.2c-6.2 6.2-16.4 6.2-22.6 0l-15.2-15.2c-24-24-56.6-37.4-90.6-37.4h-22c-34 0-66.6 13.4-90.6 37.4l-15.2 15.2c-6.2 6.2-16.4 6.2-22.6 0l-15.2-15.2c-24-24-56.6-37.4-90.6-37.4h-22c-34 0-66.6 13.4-90.6 37.4l-15.2 15.2c-6.2 6.2-16.4 6.2-22.6 0l-15.2-15.2c-24-24-56.6-37.4-90.6-37.4h-29.2c-29 0-56.8 11.6-77.2 32-17.4 17.4-28.2 40-31.2 64h-0.8z" />
<glyph unicode="&#xe94f;" glyph-name="message-middle-top" d="M687 672h209c17.6 0 32-14.4 32-32v-576c0-17.6-14.4-32-32-32h-768c-17.6 0-32 14.4-32 32v576c0 17.6 14.4 32 32 32h209c28.4 0 55.6 12.6 73.8 34.6l101.2 121.4 101.2-121.4c18.2-21.8 45.2-34.6 73.8-34.6zM337 768h-209c-70.6 0-128-57.4-128-128v-576c0-70.6 57.4-128 128-128h768c70.6 0 128 57.4 128 128v576c0 70.6-57.4 128-128 128h-209l-150.4 180.4c-6 7.4-15.2 11.6-24.6 11.6s-18.6-4.2-24.6-11.6l-150.4-180.4z" />
<glyph unicode="&#xe950;" glyph-name="m" horiz-adv-x="896" d="M34.2 894c20.4 6 42.2-2 53.8-19.6l360-547 359.8 547c11.8 17.6 33.6 25.6 54 19.6s34.2-24.8 34.2-46v-800c0-26.6-21.4-48-48-48s-48 21.4-48 48v639.8l-312-474c-8.8-13.4-24-21.6-40-21.6s-31.2 8.2-40 21.6l-312 474v-639.8c0-26.6-21.4-48-48-48s-48 21.4-48 48v800c0 21.2 14 39.8 34.2 46z" />
<glyph unicode="&#xe951;" glyph-name="expand-wide" d="M272 832c26.6 0 48-21.4 48-48s-21.4-48-48-48h-176v-176c0-26.6-21.4-48-48-48s-48 21.4-48 48v224c0 26.6 21.4 48 48 48h224zM0 336c0 26.6 21.4 48 48 48s48-21.4 48-48v-176h176c26.6 0 48-21.4 48-48s-21.4-48-48-48h-224c-26.6 0-48 21.4-48 48v224zM976 832c26.6 0 48-21.4 48-48v-224c0-26.6-21.4-48-48-48s-48 21.4-48 48v176h-176c-26.6 0-48 21.4-48 48s21.4 48 48 48h224zM928 336c0 26.6 21.4 48 48 48s48-21.4 48-48v-224c0-26.6-21.4-48-48-48h-224c-26.6 0-48 21.4-48 48s21.4 48 48 48h176v176z" />
<glyph unicode="&#xe952;" glyph-name="chevron-right" horiz-adv-x="640" d="M610 482c18.8-18.8 18.8-49.2 0-67.8l-384-384.2c-18.8-18.8-49.2-18.8-67.8 0s-18.8 49.2 0 67.8l350 350-350.2 350.2c-18.8 18.8-18.8 49.2 0 67.8s49.2 18.8 67.8 0l384.2-383.8z" />
<glyph unicode="&#xe953;" glyph-name="rectangle-vertical" horiz-adv-x="768" d="M672 64c0-17.6-14.4-32-32-32h-512c-17.6 0-32 14.4-32 32v768c0 17.6 14.4 32 32 32h512c17.6 0 32-14.4 32-32v-768zM768 832c0 70.6-57.4 128-128 128h-512c-70.6 0-128-57.4-128-128v-768c0-70.6 57.4-128 128-128h512c70.6 0 128 57.4 128 128v768z" />
<glyph unicode="&#xe954;" glyph-name="tickets-airline" horiz-adv-x="1280" d="M288 768v-448c0-17.6 14.4-32 32-32h832c17.6 0 32 14.4 32 32v76.4c-48 31.4-80 85.6-80 147.6s32 116.2 80 147.6v76.4c0 17.6-14.4 32-32 32h-832c-17.6 0-32-14.4-32-32zM320 896h832c70.6 0 128-57.4 128-128v-112c0-17.6-14.8-31.4-31.2-38.2-28.6-12.2-48.8-40.6-48.8-73.8s20.2-61.6 48.8-73.8c16.2-6.8 31.2-20.6 31.2-38.2v-112c0-70.6-57.4-128-128-128h-832c-70.6 0-128 57.4-128 128v448c0 70.6 57.4 128 128 128zM960 736c0 17.673 14.327 32 32 32s32-14.327 32-32v0c0-17.673-14.327-32-32-32s-32 14.327-32 32v0zM960 608c0 17.673 14.327 32 32 32s32-14.327 32-32v0c0-17.673-14.327-32-32-32s-32 14.327-32 32v0zM992 512c17.673 0 32-14.327 32-32s-14.327-32-32-32v0c-17.673 0-32 14.327-32 32s14.327 32 32 32v0zM960 352c0 17.673 14.327 32 32 32s32-14.327 32-32v0c0-17.673-14.327-32-32-32s-32 14.327-32 32v0zM48 768c26.6 0 48-21.4 48-48v-480c0-79.6 64.4-144 144-144h800c26.6 0 48-21.4 48-48s-21.4-48-48-48h-800c-132.6 0-240 107.4-240 240v480c0 26.6 21.4 48 48 48zM576.8 608l-46.4 139c-3.4 10.4 4.2 21 15.2 21h62.4c17 0 32.8-9 41.4-23.8l79.4-136.2h80.6c32.2 0 63-12.8 85.6-35.4 15.8-15.8 15.8-41.4 0-57-22.8-22.8-53.6-35.4-85.6-35.4h-80.6l-79.4-136.2c-8.6-14.8-24.4-23.8-41.4-23.8h-62.2c-11 0-18.6 10.6-15.2 21l46.2 138.8h-85.2l-38.4-51.2c-6-8-15.6-12.8-25.6-12.8h-27.6c-10.4 0-18 9.8-15.6 19.8l25 100.4c1.2 5 1.2 10.4 0 15.6l-25 100.4c-2.6 10 5.2 19.8 15.6 19.8h27.6c10 0 19.6-4.8 25.6-12.8l38.4-51.2h85.4z" />
<glyph unicode="&#xe955;" glyph-name="comment-heart" d="M336.4 190.2c-30 10.8-63.4 6.2-89.2-12.8-16.4-12-44.6-29.6-78.8-45.4 11.2 29.4 19.8 62.6 22.6 98.8 2 25.8-6.6 51.4-23.6 71-46.6 52.6-71.4 114.2-71.4 178.2 0 159 166.6 320 416 320s416-161 416-320-166.6-320-416-320c-63.2 0-122.6 11-175.6 30.2zM52.6 112.4c-3.2-5.4-6.6-10.8-10.2-16.2l-0.6-1c-3.2-4.6-6.4-9.2-9.6-13.8-7-9.4-14.6-18.6-22.6-27-9.2-9.2-11.8-22.8-6.8-34.8s16.6-19.8 29.6-19.8c10.2 0 20.4 0.6 30.6 1.6l1.4 0.2c8.8 1 17.6 2.2 26.4 3.8 1.6 0.2 3.2 0.6 4.8 1 35.6 7 69.8 19 100.2 32.2 45.8 20 84.8 43.8 108.6 61.2 63.6-23 134-35.8 208.2-35.8 282.8 0 512 186.2 512 416s-229.8 416-512.6 416-512-186.2-512-416c0-90.2 35.4-173.6 95.4-241.8-3.8-49-22.8-92.6-42.8-125.8zM288 517.4c0-32.4 13-63.6 35.8-86.6l165.4-165.4c12.4-12.4 32.8-12.4 45.2 0l165.4 165.4c23 23 35.8 54.2 35.8 86.6 0 67.6-54.8 122.6-122.6 122.6-32.4 0-63.6-13-86.6-35.8l-14.8-14.8-14.8 14.8c-23 23-54.2 35.8-86.6 35.8-67.6 0-122.6-54.8-122.6-122.6z" />
<glyph unicode="&#xe956;" glyph-name="naira-sign" horiz-adv-x="896" d="M215.6 875c-11.8 17.4-33.6 25-53.8 18.8s-33.8-24.8-33.8-45.8v-400h-80c-26.6 0-48-21.4-48-48s21.4-48 48-48h80v-304c0-26.6 21.4-48 48-48s48 21.4 48 48v304h231.2l225.2-331c11.8-17.4 33.6-25 53.8-18.8s33.8 24.8 33.8 45.8v304h80c26.6 0 48 21.4 48 48s-21.4 48-48 48h-80v400c0 26.6-21.4 48-48 48s-48-21.4-48-48v-400h-166l-290.4 427zM571.4 352h100.6v-148l-100.6 148zM390 448h-166v244l166-244z" />
<glyph unicode="&#xe957;" glyph-name="building" horiz-adv-x="768" d="M128 864c-17.6 0-32-14.4-32-32v-768c0-17.6 14.4-32 32-32h160v128c0 53 43 96 96 96s96-43 96-96v-128h160c17.6 0 32 14.4 32 32v768c0 17.6-14.4 32-32 32h-512zM0 832c0 70.6 57.4 128 128 128h512c70.6 0 128-57.4 128-128v-768c0-70.6-57.4-128-128-128h-512c-70.6 0-128 57.4-128 128v768zM176 752c0 17.6 14.4 32 32 32h96c17.6 0 32-14.4 32-32v-96c0-17.6-14.4-32-32-32h-96c-17.6 0-32 14.4-32 32v96zM464 784h96c17.6 0 32-14.4 32-32v-96c0-17.6-14.4-32-32-32h-96c-17.6 0-32 14.4-32 32v96c0 17.6 14.4 32 32 32zM176 496c0 17.6 14.4 32 32 32h96c17.6 0 32-14.4 32-32v-96c0-17.6-14.4-32-32-32h-96c-17.6 0-32 14.4-32 32v96zM464 528h96c17.6 0 32-14.4 32-32v-96c0-17.6-14.4-32-32-32h-96c-17.6 0-32 14.4-32 32v96c0 17.6 14.4 32 32 32z" />
<glyph unicode="&#xe958;" glyph-name="cabinet-filing" horiz-adv-x="896" d="M800 496h-704v336c0 17.6 14.4 32 32 32h640c17.6 0 32-14.4 32-32v-336zM0 448v-384c0-70.6 57.4-128 128-128h640c70.6 0 128 57.4 128 128v768c0 70.6-57.4 128-128 128h-640c-70.6 0-128-57.4-128-128v-384zM800 64c0-17.6-14.4-32-32-32h-640c-17.6 0-32 14.4-32 32v336h704v-336zM320 656v16h256v-16c0-26.6 21.4-48 48-48s48 21.4 48 48v32c0 44.2-35.8 80-80 80h-288c-44.2 0-80-35.8-80-80v-32c0-26.6 21.4-48 48-48s48 21.4 48 48zM304 288c-44.2 0-80-35.8-80-80v-32c0-26.6 21.4-48 48-48s48 21.4 48 48v16h256v-16c0-26.6 21.4-48 48-48s48 21.4 48 48v32c0 44.2-35.8 80-80 80h-288z" />
<glyph unicode="&#xe959;" glyph-name="gauge-high" d="M512 864c229.75 0 416-186.25 416-416s-186.25-416-416-416v0c-229.75 0-416 186.25-416 416s186.25 416 416 416v0zM512-64c282.77 0 512 229.23 512 512s-229.23 512-512 512v0c-282.77 0-512-229.23-512-512s229.23-512 512-512v0zM576 736c0 35.346-28.654 64-64 64s-64-28.654-64-64v0c0-35.346 28.654-64 64-64s64 28.654 64 64v0zM512 144c61.8 0 112 50.2 112 112 0 28-10.2 53.6-27.4 73.2l135.4 307.4c10.6 24.2-0.4 52.6-24.6 63.2s-52.6-0.4-63.2-24.6l-135.4-307.2c-60.4-1.6-108.8-51.2-108.8-112 0-61.8 50.2-112 112-112zM384 640c0 35.346-28.654 64-64 64s-64-28.654-64-64v0c0-35.346 28.654-64 64-64s64 28.654 64 64v0zM224 384c35.346 0 64 28.654 64 64s-28.654 64-64 64v0c-35.346 0-64-28.654-64-64s28.654-64 64-64v0zM864 448c0 35.346-28.654 64-64 64s-64-28.654-64-64v0c0-35.346 28.654-64 64-64s64 28.654 64 64v0z" />
<glyph unicode="&#xe95a;" glyph-name="mars-stroke-right" horiz-adv-x="1280" d="M160 448c0 141.385 114.615 256 256 256s256-114.615 256-256v0c0-141.385-114.615-256-256-256s-256 114.615-256 256v0zM764.8 496c-23.4 171.6-170.6 304-348.8 304-194.4 0-352-157.6-352-352s157.6-352 352-352c178.2 0 325.4 132.4 348.8 304h67.2v-96c0-26.6 21.4-48 48-48s48 21.4 48 48v96h156.2l-62-62c-18.8-18.8-18.8-49.2 0-67.8s49.2-18.8 67.8 0l144 144c18.8 18.8 18.8 49.2 0 67.8l-144 144c-18.8 18.8-49.2 18.8-67.8 0s-18.8-49.2 0-67.8l62-62h-156.2v95.8c0 26.6-21.4 48-48 48s-48-21.4-48-48v-96h-67.2z" />
<glyph unicode="&#xe95b;" glyph-name="bars-progress" d="M928 736v-128h-288v128h288zM96 832c-53 0-96-43-96-96v-128c0-53 43-96 96-96h832c53 0 96 43 96 96v128c0 53-43 96-96 96h-832zM928 288v-128h-544v128h544zM96 384c-53 0-96-43-96-96v-128c0-53 43-96 96-96h832c53 0 96 43 96 96v128c0 53-43 96-96 96h-832z" />
<glyph unicode="&#xe95c;" glyph-name="signal-bars-weak" horiz-adv-x="1280" d="M160 64c0-17.673-14.327-32-32-32s-32 14.327-32 32v0c0 17.673 14.327 32 32 32s32-14.327 32-32v0zM128 192c-70.692 0-128-57.308-128-128s57.308-128 128-128v0c70.692 0 128 57.308 128 128s-57.308 128-128 128v0z" />
<glyph unicode="&#xe95d;" glyph-name="utensils-slash" horiz-adv-x="1280" d="M10.2 941.6c16.4 20.8 46.6 24.6 67.4 8.2l153-119.8 9.8 87.4c2.8 26.2 26.6 45.2 53 42.4s45.4-26.6 42.4-53l-16.2-146.4 80.4-63.4v215c0 26.6 21.4 48 48 48s48-21.4 48-48v-288c0-0.8 0-1.4 0-2.2l86.4-67.8c6 11.2 9.6 24.2 9.6 38v29.4l-31.8 285.2c-3 26.4 16 50 42.4 53s50-16 53-42.4l32-288 0.2-2.6v-34.6c0-36-10.8-69.6-29.4-97.6l109.6-85.8v199.4c0 288 224 352 256 352 35.4 0 64-28.6 64-64v-738.2l173.6-136c20.8-16.4 24.6-46.6 8.2-67.4s-46.6-24.6-67.4-8.2l-1184 928c-20.8 16.4-24.6 46.6-8.2 67.4zM208 592v12.2l288-227v-393.2c0-26.6-21.4-48-48-48s-48 21.4-48 48v432h-16c-97.2 0-176 78.8-176 176zM1039.4-64v0zM864 608v-224c0-17.6 14.4-32 32-32h96v497.8c-14.2-7.2-29.8-17-45.2-30.4-39.4-34.2-82.8-96-82.8-211.4z" />
<glyph unicode="&#xe95e;" glyph-name="tower-cell" horiz-adv-x="1152" d="M103.6 956.8c24.8-9.6 37-37.4 27.6-62-22.6-58.8-35.2-123.2-35.2-190.8s12.6-132 35.2-190.8c9.6-24.8-2.8-52.6-27.6-62s-52.6 2.8-62 27.6c-26.8 69.6-41.6 145.6-41.6 225.2s14.8 155.6 41.6 225.2c9.6 24.8 37.4 37.2 62 27.6zM1048.4 956.8c24.8 9.6 52.6-2.8 62-27.6 26.8-69.6 41.6-145.6 41.6-225.2s-14.8-155.6-41.6-225.2c-9.6-24.8-37.4-37-62-27.6s-37 37.4-27.6 62c22.6 58.8 35.2 123.2 35.2 190.8s-12.6 132-35.2 190.8c-9.6 24.8 2.8 52.6 27.6 62zM582.6 576.2c-2.2-0.2-4.4-0.2-6.6-0.2s-4.4 0-6.6 0.2l-89.8-192.2h192.8l-89.6 192.2zM390 192h372l-44.8 96h-282.4l-44.8-96zM345.2 96l-61.8-132.4c-11.2-24-39.8-34.4-63.8-23.2s-34.4 39.8-23.2 63.8l286 612.6c-21.4 22.8-34.4 53.4-34.4 87.2 0 70.6 57.4 128 128 128s128-57.4 128-128c0-33.8-13-64.4-34.4-87.2l285.8-612.6c11.2-24 0.8-52.6-23.2-63.8s-52.6-0.8-63.8 23.2l-61.6 132.4h-461.6zM326.6 812.8c-14.6-33.2-22.6-70-22.6-108.8s8-75.6 22.6-108.8c10.6-24.2-0.4-52.6-24.8-63.2s-52.6 0.4-63.2 24.8c-19.6 45.2-30.6 95-30.6 147.2s11 102 30.6 147.2c10.6 24.2 39 35.4 63.2 24.8s35.4-39 24.8-63.2zM913.4 851.2c19.6-45.2 30.6-95 30.6-147.2s-11-102-30.6-147.2c-10.6-24.2-39-35.4-63.2-24.8s-35.4 39-24.8 63.2c14.6 33.2 22.6 70 22.6 108.8s-8 75.6-22.6 108.8c-10.6 24.2 0.4 52.6 24.8 63.2s52.6-0.4 63.2-24.8z" />
<glyph unicode="&#xe95f;" glyph-name="right-from-line" horiz-adv-x="896" d="M576 667.6l220-219.6-220-219.6v107.6c0 26.6-21.4 48-48 48h-240v128h240c26.6 0 48 21.4 48 48v107.6zM896 448c0 23-9.2 45-25.4 61.2l-232.2 231.6c-17.4 17.4-41 27.2-65.6 27.2-51.2 0-92.8-41.6-92.8-92.8v-67.2h-192c-53 0-96-43-96-96v-128c0-53 43-96 96-96h192v-67.2c0-51.2 41.6-92.8 92.8-92.8 24.6 0 48.2 9.8 65.6 27.2l232.2 231.6c16.2 16.2 25.4 38.2 25.4 61.2zM96 784c0 26.6-21.4 48-48 48s-48-21.4-48-48v-672c0-26.6 21.4-48 48-48s48 21.4 48 48v672z" />
<glyph unicode="&#xe960;" glyph-name="crosshairs" d="M512 960c26.6 0 48-21.4 48-48v-34.6c200.2-22.2 359.2-181.2 381.4-381.4h34.6c26.6 0 48-21.4 48-48s-21.4-48-48-48h-34.6c-22.2-200.2-181.2-359.2-381.4-381.4v-34.6c0-26.6-21.4-48-48-48s-48 21.4-48 48v34.6c-200.2 22.2-359.2 181.2-381.4 381.4h-34.6c-26.6 0-48 21.4-48 48s21.4 48 48 48h34.6c22.2 200.2 181.2 359.2 381.4 381.4v34.6c0 26.6 21.4 48 48 48zM179.4 400c21-147.2 137.4-263.6 284.6-284.6v60.6c0 26.6 21.4 48 48 48s48-21.4 48-48v-60.6c147.2 21 263.6 137.4 284.6 284.6h-60.6c-26.6 0-48 21.4-48 48s21.4 48 48 48h60.6c-21 147.2-137.4 263.6-284.6 284.6v-60.6c0-26.6-21.4-48-48-48s-48 21.4-48 48v60.6c-147.2-21-263.6-137.4-284.6-284.6h60.6c26.6 0 48-21.4 48-48s-21.4-48-48-48h-60.6zM512 512c35.346 0 64-28.654 64-64s-28.654-64-64-64v0c-35.346 0-64 28.654-64 64s28.654 64 64 64v0z" />
<glyph unicode="&#xe961;" glyph-name="clock-five" d="M928 448c0 229.75-186.25 416-416 416s-416-186.25-416-416v0c0-229.75 186.25-416 416-416s416 186.25 416 416v0zM0 448c0 282.77 229.23 512 512 512s512-229.23 512-512v0c0-282.77-229.23-512-512-512s-512 229.23-512 512v0zM560 720v-257.4l120-180c14.8-22 8.8-51.8-13.4-66.6s-51.8-8.8-66.6 13.4l-128 192c-5.2 7.8-8 17.2-8 26.6v272c0 26.6 21.4 48 48 48s48-21.4 48-48z" />
<glyph unicode="&#xe962;" glyph-name="bells" horiz-adv-x="1280" d="M461.6 469c-55.2 150.4 3.2 314.6 131.4 399-9 4.4-18.2 8.4-27.8 12-137.2 49.8-289.2-20.8-339.6-158l-29.2-80c-28.4-77.6-81.2-144-150.4-189.4l-16.2-10.6c-20.4-13.4-31.4-37-28.6-61s18.8-44.4 41.6-52.6l461-167.8 2.2 7.8c18.8 65 16.2 134.4-7 198.2l-37.4 102.4zM612 523.6c-34 92.8 13.8 195.6 106.6 229.4s195.8-14 229.8-106.8l37.6-102.4c31.6-86.2 87.2-161.6 160.2-217l-478.8-174.2c19.8 89.2 13.8 182.4-18 268.8l-37.4 102.2zM567.8 150.8l-9.2-31.6c-6.6-23.2 0.2-48 18-64.4s43-21.6 65.6-13.4l595 216.4c22.6 8.2 38.8 28.4 41.6 52.4s-8 47.4-28 60.8l-27.4 18.4c-67.6 45.4-119.2 110.8-147.2 187.2l-37.6 102.4c-52.2 142.6-210.4 216-353 164.2s-216-209.6-163.8-352.4l37.6-102.4c28-76.4 31-159.6 8.6-237.8zM961.6 0c71.2 0 129 57.6 129 128.6 0 2.6 0 5.2-0.2 7.8l-232.2-84.6c23.6-31.4 61.2-51.8 103.4-51.8zM188.6 207.8c-0.6-5-0.8-10-0.8-15 0-71 57.8-128.6 129-128.6 44.6 0 83.8 22.6 107 56.8l-235.2 86.8z" />
<glyph unicode="&#xe963;" glyph-name="ruble-sign" horiz-adv-x="768" d="M222.6 896c-52.2 0-94.6-42.4-94.6-94.6v-385.4h-80c-26.6 0-48-21.4-48-48s21.4-48 48-48h80v-96h-80c-26.6 0-48-21.4-48-48s21.4-48 48-48h80v-80c0-26.6 21.4-48 48-48s48 21.4 48 48v80h368c26.6 0 48 21.4 48 48s-21.4 48-48 48h-368v96h256c159 0 288 129 288 288s-129 288-288 288h-257.4zM480 416h-256v384h256c106 0 192-86 192-192s-86-192-192-192z" />
<glyph unicode="&#xe964;" glyph-name="futbol" d="M870.8 237.4l-179.4 12c-10.4 0.6-20.6-2.2-29-8.4s-14.4-14.8-16.8-25l-44-174.4c-28.8-6.4-58.8-9.6-89.6-9.6s-60.6 3.4-89.6 9.6l-44 174.4c-2.6 10-8.6 18.8-16.8 25s-18.6 9-29 8.4l-179.4-12c-29.8 50.8-49.4 108.6-55.2 170.2l152 95.8c8.8 5.6 15.2 14 18.4 23.8s2.8 20.4-1 30l-66.6 166.8c39.8 44.8 89.2 81 144.8 105.4l138.2-115.2c8-6.6 18-10.2 28.2-10.2s20.4 3.6 28.2 10.2l138.2 115.2c55.6-24.4 105-60.6 144.8-105.4l-66.8-166.8c-3.8-9.6-4.2-20.2-1-30s9.8-18.2 18.4-23.8l152.2-95.8c-6-61.6-25.4-119.4-55.2-170.2zM512 864v0zM113.4 567.6c1.8 6 3.8 12.2 5.8 18.2l-5.8-18.2zM264 114l7.6-5.4c-2.6 1.8-5 3.6-7.6 5.4zM760.2 114.2c-2.6-2-5.4-4-8-5.8l8 5.8zM910.6 567.4l-6 18.4c2.2-6 4.2-12.2 6-18.4zM512-64c282.77 0 512 229.23 512 512s-229.23 512-512 512v0c-282.77 0-512-229.23-512-512s229.23-512 512-512v0zM540.2 587.4c-16.8 12.2-39.6 12.2-56.4 0l-95.8-69.4c-16.8-12.2-23.8-33.8-17.4-53.6l36.6-112.6c6.4-19.8 24.8-33.2 45.6-33.2h118.4c20.8 0 39.2 13.4 45.6 33.2l36.6 112.6c6.4 19.8-0.6 41.4-17.4 53.6l-95.8 69.6z" />
<glyph unicode="&#xe965;" glyph-name="coin-blank" d="M512 352c128 0 239.2 29.4 315 72 78.8 44.4 101 90.6 101 120s-22.2 75.6-101 120c-75.8 42.6-187 72-315 72s-239.2-29.4-315-72c-78.8-44.4-101-90.6-101-120s22.2-75.6 101-120c75.8-42.6 187-72 315-72zM0 544c0 159 229.2 288 512 288s512-129 512-288v-224c0-141.4-229.2-256-512-256s-512 114.6-512 256v224zM512 256c-27.2 0-54 1.2-80 3.4v-96c25.8-2.2 52.6-3.4 80-3.4s54.2 1.2 80 3.4v96c-26-2.2-52.8-3.4-80-3.4zM240 300v-95.4c37.4-14 80.6-25.4 128-33.2v96.2c-45.6 7.6-88.6 18.4-128 32.4zM176 326.6c-30 14.8-56.8 31.4-80 49.4v-56c0-13.6 12.4-48.4 80-86.2v93zM656 267.4v-96.2c47.4 7.8 90.6 19.2 128 33.2v95.4c-39.4-14-82.4-25-128-32.4zM928 320v56c-23.2-18.2-50-34.8-80-49.4v-93c67.6 37.8 80 72.6 80 86.2z" />
<glyph unicode="&#xe966;" glyph-name="golf-flag-hole" d="M325.4 955c-14.8 7.4-32.6 6.6-46.8-2.2s-22.6-24.2-22.6-40.8v-720c0-1.4 0-3 0.2-4.4-0.2-1.2-0.2-2.4-0.2-3.6 0-39.8 71.6-72 160-72s160 32.2 160 72-71.6 72-160 72c-22.8 0-44.4-2.2-64-6v57.6c49.2 7.8 103 12.4 160 12.4 123.4 0 232.8-20.8 309.8-52.6 38.6-16 66.6-33.8 84.2-51 17.4-17.2 22-30.8 22-40.4s-4.6-23.4-22-40.4c-17.6-17.2-45.6-35-84.2-51-77-31.8-186.4-52.6-309.8-52.6s-232.8 20.8-309.8 52.6c-38.6 16-66.6 33.8-84.2 51-17.4 17.2-22 30.8-22 40.4s4.6 23.4 22 40.4c16 15.8 40.6 31.8 74 46.6v103.4c-9-3.2-18-6.6-26.4-10.2-45.4-18.8-85.4-42.4-114.6-71-29.6-29-51-65.8-51-109.2s21.4-80.2 50.8-109c29.4-28.6 69.2-52.2 114.6-71 91.2-37.8 213.8-60 346.6-60s255.4 22.2 346.4 59.8c45.4 18.8 85.4 42.4 114.6 71 29.6 29 51 65.8 51 109.2s-21.4 80.2-50.8 109c-29.2 28.6-69.2 52.2-114.6 71-91.2 37.8-213.8 60-346.6 60-55.6 0-109.6-3.8-160-11.2v61.6l389.4 194.8c16.2 8.2 26.6 24.8 26.6 43s-10.2 34.8-26.6 43l-416 208zM352 573.6v260.8l260.6-130.4-260.6-130.4z" />
<glyph unicode="&#xe967;" glyph-name="scribble" d="M366.6 917.2c30 27.4 69.4 42.8 110.2 42.8h2c89 0 161.2-72.2 161.2-161.2 0-42.8-17-83.8-47.2-114l-413.8-413.6c-12.2-12.2-19-28.8-19-46 0-36 29.2-65.2 65.2-65.2 17.2 0 33.8 6.8 46 19l477.8 477.8c30.2 30.2 71.2 47.2 114 47.2 89 0 161.2-72.2 161.2-161.2 0-42.8-17-83.8-47.2-114l-208.6-208.4c-20.8-20.6-32.4-48.8-32.4-78 0-61 49.4-110.4 110.4-110.4h8.8c11.2 0 22.4 1.8 33.2 5.4l72.4 24.2c25.2 8.4 52.4-5.2 60.8-30.4s-5.2-52.4-30.4-60.8l-72.4-24.2c-20.4-6.8-42-10.4-63.6-10.4h-8.8c-114 0-206.4 92.4-206.4 206.4 0 54.8 21.8 107.2 60.4 146l208.6 208.6c12.2 12.2 19 28.8 19 46 0 36-29.2 65.2-65.2 65.2-17.2 0-33.8-6.8-46-19l-477.8-477.8c-30.2-30.2-71.2-47.2-114-47.2-88.8 0-161 72.2-161 161.2 0 42.8 17 83.8 47.2 114l413.8 413.6c12.2 12.2 19 28.8 19 46 0 36-29.2 65.2-65.2 65.2h-2c-16.8 0-33-6.4-45.4-17.6l-351-321.8c-19.6-18-50-16.6-67.8 3s-16.6 50 3 67.8l351 321.8z" />
<glyph unicode="&#xe968;" glyph-name="gauge-max" d="M512 32c229.75 0 416 186.25 416 416s-186.25 416-416 416v0c-229.75 0-416-186.25-416-416s186.25-416 416-416v0zM512 960c282.77 0 512-229.23 512-512s-229.23-512-512-512v0c-282.77 0-512 229.23-512 512s229.23 512 512 512v0zM576 736c0-35.346-28.654-64-64-64s-64 28.654-64 64v0c0 35.346 28.654 64 64 64s64-28.654 64-64v0zM512 144c-61.8 0-112 50.2-112 112s50.2 112 112 112c20.6 0 39.8-5.6 56.4-15.2l220.4 150.8c21.8 15 51.8 9.4 66.8-12.6s9.4-51.8-12.6-66.8l-220.4-150.6c0.8-5.8 1.4-11.6 1.4-17.6 0-61.8-50.2-112-112-112zM768 640c0-35.346-28.654-64-64-64s-64 28.654-64 64v0c0 35.346 28.654 64 64 64s64-28.654 64-64v0zM224 512c35.346 0 64-28.654 64-64s-28.654-64-64-64v0c-35.346 0-64 28.654-64 64s28.654 64 64 64v0zM384 640c0-35.346-28.654-64-64-64s-64 28.654-64 64v0c0 35.346 28.654 64 64 64s64-28.654 64-64v0z" />
<glyph unicode="&#xe969;" glyph-name="comet" d="M919.6 953.6c9.4 4.2 19.6 6.4 30 6.4 41 0 74.4-33.4 74.4-74.4 0-10.4-2.2-20.6-6.4-30l-119-270.6 21.4 1.6c67.8 5.2 110.8-71 71.2-126.2l-252.8-353.8c-76.4-107-199.8-170.6-331.2-170.6-225.2 0-407.2 184.4-407.2 409 0 129.6 61.2 252.6 165.4 330l357.8 265.8c55 40.8 132.6-1.8 127.4-70.2l-2.6-36.4 271.6 119.4zM907.6 843.4l-294-129.4c-15.4-6.8-33.2-5-47 4.8s-21.4 26-20.2 42.8l6 81.2-329.6-244.8c-79.6-59.2-126.8-153.6-126.8-253 0-172.2 139.6-313 311.2-313 100.4 0 194.8 48.6 253.2 130.4l232.8 326-67.2-5.4c-16.8-1.2-33 6.4-42.8 20.2s-11.6 31.6-4.8 47l129.2 293.2zM416 560c12.2 0 23.4-7 28.6-17.8l49-99.2 109.6-16c12-1.8 22-10.2 25.8-21.8s0.6-24.4-8-32.8l-79.2-77.2 18.8-109c2-12-2.8-24.2-12.8-31.4s-23-8.2-33.6-2.4l-98 51.6-98-51.6c-10.8-5.6-23.8-4.8-33.6 2.4s-14.8 19.2-12.8 31.4l18.8 109-79.2 77.2c-8.8 8.6-11.8 21.2-8 32.8s13.8 20 25.8 21.8l109.6 16 49 99.2c5.4 11 16.6 17.8 28.6 17.8z" />
<glyph unicode="&#xe96a;" glyph-name="list-tree" d="M48 864c-26.6 0-48-21.4-48-48v-96c0-26.6 21.4-48 48-48v-480c0-61.8 50.2-112 112-112h96c0-26.6 21.4-48 48-48h96c26.6 0 48 21.4 48 48v96c0 26.6-21.4 48-48 48h-96c-26.6 0-48-21.4-48-48h-96c-8.8 0-16 7.2-16 16v208h112c0-26.6 21.4-48 48-48h96c26.6 0 48 21.4 48 48v96c0 26.6-21.4 48-48 48h-96c-26.6 0-48-21.4-48-48h-112v176c26.6 0 48 21.4 48 48v96c0 26.6-21.4 48-48 48h-96zM320 768c0-26.6 21.4-48 48-48h608c26.6 0 48 21.4 48 48s-21.4 48-48 48h-608c-26.6 0-48-21.4-48-48zM576 448c0-26.6 21.4-48 48-48h352c26.6 0 48 21.4 48 48s-21.4 48-48 48h-352c-26.6 0-48-21.4-48-48zM576 128c0-26.6 21.4-48 48-48h352c26.6 0 48 21.4 48 48s-21.4 48-48 48h-352c-26.6 0-48-21.4-48-48z" />
<glyph unicode="&#xe96b;" glyph-name="grid" horiz-adv-x="896" d="M176 816v-96h-96v96h96zM80 896c-44.2 0-80-35.8-80-80v-96c0-44.2 35.8-80 80-80h96c44.2 0 80 35.8 80 80v96c0 44.2-35.8 80-80 80h-96zM176 496v-96h-96v96h96zM80 576c-44.2 0-80-35.8-80-80v-96c0-44.2 35.8-80 80-80h96c44.2 0 80 35.8 80 80v96c0 44.2-35.8 80-80 80h-96zM80 176h96v-96h-96v96zM0 176v-96c0-44.2 35.8-80 80-80h96c44.2 0 80 35.8 80 80v96c0 44.2-35.8 80-80 80h-96c-44.2 0-80-35.8-80-80zM496 816v-96h-96v96h96zM400 896c-44.2 0-80-35.8-80-80v-96c0-44.2 35.8-80 80-80h96c44.2 0 80 35.8 80 80v96c0 44.2-35.8 80-80 80h-96zM400 496h96v-96h-96v96zM320 496v-96c0-44.2 35.8-80 80-80h96c44.2 0 80 35.8 80 80v96c0 44.2-35.8 80-80 80h-96c-44.2 0-80-35.8-80-80zM496 176v-96h-96v96h96zM400 256c-44.2 0-80-35.8-80-80v-96c0-44.2 35.8-80 80-80h96c44.2 0 80 35.8 80 80v96c0 44.2-35.8 80-80 80h-96zM720 816h96v-96h-96v96zM640 816v-96c0-44.2 35.8-80 80-80h96c44.2 0 80 35.8 80 80v96c0 44.2-35.8 80-80 80h-96c-44.2 0-80-35.8-80-80zM816 496v-96h-96v96h96zM720 576c-44.2 0-80-35.8-80-80v-96c0-44.2 35.8-80 80-80h96c44.2 0 80 35.8 80 80v96c0 44.2-35.8 80-80 80h-96zM720 176h96v-96h-96v96zM640 176v-96c0-44.2 35.8-80 80-80h96c44.2 0 80 35.8 80 80v96c0 44.2-35.8 80-80 80h-96c-44.2 0-80-35.8-80-80z" />
<glyph unicode="&#xe96c;" glyph-name="square-c" horiz-adv-x="896" d="M128 800c-17.6 0-32-14.4-32-32v-640c0-17.6 14.4-32 32-32h640c17.6 0 32 14.4 32 32v640c0 17.6-14.4 32-32 32h-640zM0 768c0 70.6 57.4 128 128 128h640c70.6 0 128-57.4 128-128v-640c0-70.6-57.4-128-128-128h-640c-70.6 0-128 57.4-128 128v640zM334.8 561.2c-62.4-62.4-62.4-163.8 0-226.2s163.8-62.4 226.2 0c18.8 18.8 49.2 18.8 67.8 0s18.8-49.2 0-67.8c-100-100-262-100-362 0s-100 262 0 362 262 100 362 0c18.8-18.8 18.8-49.2 0-67.8s-49.2-18.8-67.8 0c-62.4 62.4-163.8 62.4-226.2 0z" />
<glyph unicode="&#xe96d;" glyph-name="location-plus" horiz-adv-x="768" d="M672 576c0 159-129 288-288 288s-288-129-288-288c0-24.8 9-63.2 30.6-114.4 21-49.6 50.8-104.4 85-159.8 57-92.4 123-181.6 172.4-245.2 49.6 63.6 115.6 152.8 172.4 245.2 34.2 55.4 64 110.2 85 159.8 21.6 51.2 30.6 89.6 30.6 114.4zM768 576c0-174.8-234-486-336.6-614.4-24.6-30.6-70.2-30.6-94.8 0-102.6 128.4-336.6 439.6-336.6 614.4 0 212 172 384 384 384s384-172 384-384zM336 400v128h-128c-26.6 0-48 21.4-48 48s21.4 48 48 48h128v128c0 26.6 21.4 48 48 48s48-21.4 48-48v-128h128c26.6 0 48-21.4 48-48s-21.4-48-48-48h-128v-128c0-26.6-21.4-48-48-48s-48 21.4-48 48z" />
<glyph unicode="&#xe96e;" glyph-name="helmet-battle" horiz-adv-x="1152" d="M160 925.8l-29.8-417.2c-2.4-34-30.8-60.4-65-60.4h-4.4c-33.6-0.2-60.8 27-60.8 60.6 0 4.6 0.6 9.2 1.6 13.6l95.2 412.8c3.8 16.2 19.4 27 36 24.4s28.4-17.2 27.2-34zM151 119c-18.4 11.2-27 33.4-21.2 54.2 34 119.6 62.2 246.4 62.2 370.8 0 170 178.2 298.4 306.2 378 3.8 2.4 8 5.2 12.6 8.2 18.8 13 43.8 29.8 65.2 29.8s46.4-16.8 65.4-29.8c4.6-3 8.8-6 12.6-8.2 127.8-79.6 306-208 306-378 0-124.4 28.2-251.2 62.2-370.8 6-20.8-2.8-42.8-21.2-54.2l-367.4-171c-17-7.8-35.4-12-54-12h-7.4c-18.6 0-37.2 4-54 12l-367.2 171zM624 49.4l294.8 137.4c-30 111.8-54.8 234.2-54.8 357.2 0 50-26.2 101.8-78.4 156.6-52 54.2-120 101.2-182.4 140-5.4 3.4-11.8 7.8-16.6 10.8l-3 2c-2.8 2-5.4 3.6-7.8 5-2.4-1.4-4.8-3.2-7.8-5l-3-2c-4.6-3.2-11-7.4-16.6-10.8-62.4-38.8-130.4-85.8-182.4-140-51.8-54.8-78-106.6-78-156.6 0-123-24.8-245.4-54.8-357.4l294.8-137.2v312.2c0 13.4-8.4 25.4-21 30l-130.2 47.4c-14.8 5.4-24.8 19.6-24.8 35.4 0 20.8 16.8 37.6 37.6 37.6h372.8c20.8 0 37.6-16.8 37.6-37.6 0-15.8-10-30-24.8-35.4l-130.2-47.4c-12.6-4.6-21-16.6-21-30v-312.2zM1019.2 959.6c16.6 2.4 32.2-8.2 36-24.4l95.2-412.8c1-4.4 1.6-9 1.6-13.6 0-33.6-27.2-60.8-60.8-60.8h-4.4c-34.2 0-62.6 26.4-65 60.4l-29.8 417.4c-1.2 16.6 10.6 31.4 27.2 34z" />
<glyph unicode="&#xe96f;" glyph-name="sink" d="M560 784c0 44.2 35.8 80 80 80s80-35.8 80-80v-48c0-26.6 21.4-48 48-48s48 21.4 48 48v48c0 97.2-78.8 176-176 176s-176-78.8-176-176v-400h-144v48c0 61.8-50.2 112-112 112h-96c-26.6 0-48-21.4-48-48s21.4-48 48-48h96c8.8 0 16-7.2 16-16v-48h-176c-26.6 0-48-21.4-48-48s21.4-48 48-48h928c26.6 0 48 21.4 48 48s-21.4 48-48 48h-176v48c0 8.8 7.2 16 16 16h112c26.6 0 48 21.4 48 48s-21.4 48-48 48h-112c-61.8 0-112-50.2-112-112v-48h-144v400zM64 224v-48c0-132.6 107.4-240 240-240h416c132.6 0 240 107.4 240 240v48h-96v-48c0-79.6-64.4-144-144-144h-416c-79.6 0-144 64.4-144 144v48h-96z" />
<glyph unicode="&#xe970;" glyph-name="dollar-sign" horiz-adv-x="640" d="M368 912c0 26.6-21.4 48-48 48s-48-21.4-48-48v-95.4c-6.2-0.2-12.4-0.6-18.6-1.2-46.4-3.8-94.4-14.8-134.4-40.2-41.6-26.4-72-67.2-83-123.6-7.8-40.6-4-77.6 12.2-110.4 16-32 41.8-55.2 69.6-72.4 52.4-32.4 123.8-50.6 185.8-66.4l4.6-1.2c67.8-17.2 125.2-32.2 163.4-56 18-11.2 28.6-22.4 34.2-33.8 5.4-10.6 8.4-25.6 4-49-5.8-29.4-26.8-53.8-69-69.8-43.2-16.4-104-21.8-175.2-11.8-45.2 6.6-123.6 25.4-166 44.2-24.2 10.8-52.6-0.2-63.4-24.4s0.2-52.6 24.4-63.4c53.4-23.6 141.6-44 191.4-51.2h0.2c6.6-1 13.2-1.8 19.8-2.4v-99.6c0-26.6 21.4-48 48-48s48 21.4 48 48v97.2c38.6 2.6 74.8 9.8 107 22 63.8 24.2 115.4 70.4 129 141.2 7.8 40.6 4 77.6-12.2 110.4-16 32-41.8 55.2-69.6 72.4-52.4 32.4-123.8 50.6-185.8 66.4l-4.6 1.2c-67.8 17.2-125.2 32.2-163.4 56-18 11.2-28.6 22.4-34.2 33.8-5.4 10.6-8.4 25.6-4 49 5.8 29.6 20.2 48 40.4 60.8 21.8 13.8 52.6 22.4 90.6 25.4 76.6 6.2 166.2-10.6 227.8-25 25.8-6.2 51.6 9.8 57.8 35.6s-9.8 51.6-35.6 57.8c-37.4 8.8-88.4 19.4-143 25v98.8z" />
<glyph unicode="&#xe971;" glyph-name="shield-dog" d="M146 706l366 155.2 366-155.2c11.8-5 18.2-15.6 18-25.6-0.8-182.8-76.8-498.6-372.6-640.2-7.2-3.4-15.6-3.4-22.6 0-296 141.8-371.8 457.4-372.8 640.4 0 10 6.2 20.4 18 25.6zM915.4 794.4l-376.6 159.8c-8.4 3.8-17.4 5.8-26.8 5.8s-18.4-2-26.8-5.8l-376.6-159.8c-44-18.6-76.8-62-76.6-114.4 1-198.4 82.6-561.4 427.2-726.4 33.4-16 72.2-16 105.6 0 344.8 165 426.2 528 427.2 726.4 0.2 52.4-32.6 95.8-76.6 114.4zM321.8 419.6l-30-60c-2.4-5-3.8-10.4-3.8-16 0-14.2 8.6-27.2 21.6-32.8l197.4-84.6c3.4-1.4 6.8-2.2 10.4-2.2 14.6 0 26.6 11.8 26.6 26.6v101.4h96c88.4 0 160 71.6 160 160v64c0 17.6-14.4 32-32 32h-128l-14.4 28.6c-10.8 21.6-33 35.4-57.2 35.4h-88.4v-128c0-70.6-57.4-128-128-128-10.4 0-20.6 1.2-30.2 3.6zM320 672c-17.6 0-32-14.4-32-32v-96c0-35.4 28.6-64 64-64s64 28.6 64 64v128h-96zM512 576c0 17.673 14.327 32 32 32s32-14.327 32-32v0c0-17.673-14.327-32-32-32s-32 14.327-32 32v0z" />
<glyph unicode="&#xe972;" glyph-name="explosion" horiz-adv-x="1152" d="M1086.4 899.6c6.2 23.2-5.6 47.4-27.8 56.6s-47.8 0.8-60-19.8l-309.2-524.6-67 256.4c-5.4 21-24.6 35.8-46.4 35.8s-41-14.8-46.4-35.8l-74.8-287-164.8 164.8c-15.2 15.2-38.8 18.4-57.6 7.8s-28.2-32.4-23-53.4l47.8-191.4-141.6 10.8c-18.4 1.4-36-8-45.4-24s-8.4-36 2.2-51.2l103-148.6h116.8l-83.4 120.4 107.4-8.2c15.4-1.2 30.4 5.2 40.4 16.8s13.6 27.6 9.8 42.6l-22 87.8 101.6-101.4c12.2-12.2 30-16.8 46.6-12.4s29.6 17.6 33.8 34.2l49.6 190 49.6-190c4.8-18.8 20.6-32.8 39.8-35.4s38.2 6.4 48 23.2l189 320.4-84.8-315.6c-4-15.2-0.4-31.4 9.6-43.4s25.4-18.4 41-16.8l73.8 6.8-82.2-119h116.8l103 148.6c10.6 15.4 11.4 35.4 2 51.6s-27.2 25.4-45.8 23.6l-107.6-9.8 158.2 589.6zM931.8 32h-153.4c-21.6 91.8-104 160-202.4 160s-180.8-68.2-202.4-160h-325.6c-26.6 0-48-21.4-48-48s21.4-48 48-48h1056c26.6 0 48 21.4 48 48s-21.4 48-48 48h-172.2zM474.8 32c18 37.8 56.6 64 101.2 64s83.2-26.2 101.2-64h-202.4zM624 912c0 26.6-21.4 48-48 48s-48-21.4-48-48v-96c0-26.6 21.4-48 48-48s48 21.4 48 48v96z" />
<glyph unicode="&#xe973;" glyph-name="image" d="M896 800c17.6 0 32-14.4 32-32v-639.6l-10 13-272 352c-9 11.8-23.2 18.6-38 18.6s-28.8-6.8-38-18.6l-166-214.8-61 85.4c-9 12.6-23.4 20-39 20s-30-7.4-39-20.2l-160-224-9-12.4v640.6c0 17.6 14.4 32 32 32h768zM128 896c-70.6 0-128-57.4-128-128v-640c0-70.6 57.4-128 128-128h768c70.6 0 128 57.4 128 128v640c0 70.6-57.4 128-128 128h-768zM288 512c53.019 0 96 42.981 96 96s-42.981 96-96 96v0c-53.019 0-96-42.981-96-96s42.981-96 96-96v0z" />
<glyph unicode="&#xe974;" glyph-name="farm" horiz-adv-x="1152" d="M96 32v576h230.6l46.8 100.4c14.4 31 39.6 55.8 70.6 70-19.8 103.4-110.8 181.6-220 181.6-123.8 0-224-100.2-224-224v-704c0-53 43-96 96-96h200.2c-22 26.6-36.2 59.6-39.6 96h-160.6zM352 704h-256v32c0 70.6 57.4 128 128 128s128-57.4 128-128v-32zM515.8 635.2l220.2 96.4 220.2-96.4 99.8-214v-373.2c0-8.8-7.2-16-16-16h-176v112c0 44.2-35.8 80-80 80h-96c-44.2 0-80-35.8-80-80v-112h-176c-8.8 0-16 7.2-16 16v373.4l99.8 214zM768 822.4c-20.4 9-43.6 9-64.2 0l-232-101.6c-17.8-7.8-32.2-21.8-40.4-39.4l-103.8-222.6c-5-10.6-7.6-22.2-7.6-33.8v-377c0-61.8 50.2-112 112-112h608c61.8 0 112 50.2 112 112v377c0 11.6-2.6 23.2-7.6 33.8l-103.8 222.6c-8.2 17.6-22.6 31.6-40.4 39.4l-232.2 101.6zM640 464v-96c0-26.6 21.4-48 48-48h96c26.6 0 48 21.4 48 48v96c0 26.6-21.4 48-48 48h-96c-26.6 0-48-21.4-48-48z" />
<glyph unicode="&#xe975;" glyph-name="face-thinking" d="M512 32c229.8 0 416 186.2 416 416s-186.2 416-416 416-416-186.2-416-416c0-35.4 4.4-69.6 12.8-102.4-27.2-20.4-44.8-53-44.8-89.6v-56c-40.8 73.4-64 158-64 248 0 282.8 229.2 512 512 512s512-229.2 512-512-229.2-512-512-512c-21.2 0-42.2 1.2-62.8 3.8 8 11.4 14.6 24 19.6 37.6l20.2 55.4c7.6-0.4 15.4-0.6 23.2-0.6zM598 349.8c-19.8 4-41 2.6-61.4-5l-60.8-22.8-131 30.8c-17.2 4-27.8 21.2-23.8 38.4s21.2 27.8 38.4 23.8l194.2-45.6c16.4-3.8 31.4-10.6 44.6-19.6zM288.8 576c0 35.346 28.654 64 64 64s64-28.654 64-64v0c0-35.346-28.654-64-64-64s-64 28.654-64 64v0zM672.8 608c35.346 0 64-28.654 64-64s-28.654-64-64-64v0c-35.346 0-64 28.654-64 64s28.654 64 64 64v0zM432.8 670.4c-41 35.2-99.8 40.8-146.8 14l-14.2-8c-15.4-8.8-34.8-3.4-43.6 12s-3.4 34.8 12 43.6l14.2 8c70.4 40.2 158.6 31.8 220.2-21l26.4-22.6c13.4-11.6 15-31.8 3.4-45.2s-31.8-15-45.2-3.4l-26.4 22.6zM224 256v-96.8l335.2 125.6c24.8 9.4 52.4-3.2 61.8-28s-3.2-52.4-28-61.8l-131.2-49c-0.2-0.8-0.6-1.6-0.8-2.4l-52.6-144.4c-13.8-38-49.8-63.2-90.2-63.2h-94.2c-53 0-96 43-96 96v224c0 26.6 21.4 48 48 48s48-21.4 48-48z" />
<glyph unicode="&#xe976;" glyph-name="ear-listen" d="M777.8 952.4c123.4-78.4 209.4-204 238.2-347.6l7-35.4c5.2-26-11.6-51.2-37.6-56.4s-51.2 11.6-56.4 37.6l-7.2 35.4c-23.6 117.8-94.2 221-195.6 285.4-22.4 14.2-29 44-14.8 66.2s43.8 29 66.2 14.8zM480 736c-141.4 0-256-114.6-256-256 0-26.6-21.4-48-48-48s-48 21.4-48 48c0 194.4 157.6 352 352 352s352-157.6 352-352c0-95-37.6-181.2-98.8-244.4-9.6-9.8-13.2-19.8-13.2-27.6 0-150.2-121.8-272-272-272-26.6 0-48 21.4-48 48s21.4 48 48 48c97.2 0 176 78.8 176 176 0 38.2 17.8 71 40.2 94.2 44.6 46 71.8 108.8 71.8 177.8 0 141.4-114.6 256-256 256zM480 560c-44.2 0-80-35.8-80-80 0-26.6-21.4-48-48-48s-48 21.4-48 48c0 97.2 78.8 176 176 176s176-78.8 176-176c0-26.6-21.4-48-48-48s-48 21.4-48 48c0 44.2-35.8 80-80 80zM336 320c26.51 0 48-21.49 48-48s-21.49-48-48-48v0c-26.51 0-48 21.49-48 48s21.49 48 48 48v0zM48 32c26.51 0 48-21.49 48-48s-21.49-48-48-48v0c-26.51 0-48 21.49-48 48s21.49 48 48 48v0zM162 226l128-128c18.8-18.8 18.8-49.2 0-67.8s-49.2-18.8-67.8 0l-128.2 127.8c-18.8 18.8-18.8 49.2 0 67.8s49.2 18.8 67.8 0z" />
<glyph unicode="&#xe977;" glyph-name="pegasus" horiz-adv-x="1152" d="M219.2 692.2c-19.8-14.6-37-32.2-51-52.4-93.6-4-168.2-81.2-168.2-175.8v-128c0-26.6 21.4-48 48-48s48 21.4 48 48v128c0 26.4 12.8 50 32.6 64.4-0.4-5.6-0.6-11.2-0.6-17 0-28.6 5.4-56.8 16-83.4l43.8-109.2-16.4-43.4c-22.6-60.2-25.4-126.2-8.2-188.2l22.4-81c11.6-41.6 49.4-70.4 92.4-70.4h99.6c63.4 0 109.4 60.6 92.4 121.6l-29.6 106.6c-1 3.2-0.8 6.8 0.4 10l24.2 64.6c2.8 7.4 5.2 14.8 7.2 22.4l103.8-30v-199c0-53 43-96 96-96h96c53 0 96 43 96 96v272.4c39.6 45.2 64 104.6 64 171v20.2c35.4-12 75-11.6 111.6 3 68.8 27.6 110 98.6 99.4 172l-19.8 138.4c-3.2 22.6-10.6 43.8-21.4 62.6 13.4 8.4 22.2 23.4 22.2 40.4 0 26.6-21.4 48-48 48h-112v-0.6c-5 0.4-10 0.6-15 0.6h-81c-3.6 0-7-0.4-10.4-1.2-123.6-10.6-226.2-95.2-263-209.4l-262 155.8c-14.8 8.8-33.2 9-48.2 0.4s-24.4-24.4-24.4-41.6c0-152.6 72.2-260.4 142.6-328.4 35-34 70-58.6 96.2-74.6 13.2-8 24.2-14.2 32.2-18.2 4-2 7.2-3.6 9.6-4.8 1.2-0.6 2-1 2.8-1.2l0.8-0.4 0.2-0.2h0.2c0 0 0 0 19.2 44l-19.2-44c24.2-10.6 52.6 0.4 63.2 24.8s-0.4 52.6-24.8 63.2v0h-0.2l-1.4 0.6c-1.4 0.6-3.8 1.8-6.8 3.4-6 3-15 8-25.8 14.6-21.8 13.4-50.8 33.8-79.8 61.8-41.6 40.4-82.4 95.6-101.6 168.2l38.8-23.2 172.8-102.8c5.2-3.2 10.8-5.2 16.6-6v-0.6h7.2c0.6 0 1.2 0 1.6 0h25.6c24.2 0 44.6 18 47.6 42 12.2 98.2 93.2 175.4 193.2 181.6 1.4 0 2.6 0.2 4 0.4h74.2c39.8 0 73.6-29.2 79.2-68.6l19.8-138.4c4.2-29.6-12.4-58.2-40-69.4-26.6-10.6-56.8-2.6-74.6 19.6l-11.8 14.6c-12.8 16-34.2 22-53.4 15.4s-32.2-25-32.2-45.2v-110c0-1 0-2 0-3 0-1.2 0-2.4 0-3.4 0-47-19.2-88.2-49.4-117.6-9.2-9-14.6-21.4-14.6-34.4v-291.8h-96v235.6c0 22.6-15.8 42.2-38 47-4.2 0.8-8.4 2-12.6 3.2l-176 51.4c-14.6 4.2-30.6 1.4-42.6-8s-19.2-23.8-18.8-39c0-0.8 0-1.8 0-2.6 0-16-2.8-32-8.6-47l-24.2-64.6c-8.4-22.2-9.4-46.4-3-69.2l29.6-106.8h-99.6l-22.4 81c-11.8 42.4-9.8 87.4 5.6 128.8l16.4 43.4c8.4 22.4 8.2 47.2-0.8 69.4l-43.8 109.2c-6 15.2-9.2 31.4-9.2 47.8 0 34.8 14 66.6 36.4 89.6-16 27.4-30 57.8-41.2 91zM928 736c17.673 0 32 14.327 32 32s-14.327 32-32 32v0c-17.673 0-32-14.327-32-32s14.327-32 32-32v0z" />
<glyph unicode="&#xe978;" glyph-name="face-grin" d="M928 448c0 229.75-186.25 416-416 416s-416-186.25-416-416v0c0-229.75 186.25-416 416-416s416 186.25 416 416v0zM0 448c0 282.77 229.23 512 512 512s512-229.23 512-512v0c0-282.77-229.23-512-512-512s-512 229.23-512 512v0zM699 343.2c37.4 8.8 71.8-24 51-56.2-49.2-76.2-137.4-127-238.2-127s-189 50.8-238.2 127c-20.8 32.2 13.6 65 51 56.2 57.8-13.6 121-21 187.2-21s129.4 7.4 187.2 21zM288.8 544c0 35.346 28.654 64 64 64s64-28.654 64-64v0c0-35.346-28.654-64-64-64s-64 28.654-64 64v0zM672.8 608c35.346 0 64-28.654 64-64s-28.654-64-64-64v0c-35.346 0-64 28.654-64 64s28.654 64 64 64v0z" />
<glyph unicode="&#xe979;" glyph-name="toilet-paper-under-slash" horiz-adv-x="1280" d="M77.6 949.8c-20.8 16.4-51 12.6-67.4-8.2s-12.6-51 8.2-67.4l1184-928c20.8-16.4 51-12.6 67.4 8.2s12.6 51-8.2 67.4l-109.6 86v468.2c0 99-21 190.8-57 259.8-35 66.8-91.6 124.2-167 124.2h-576c-67.6 0-120-46-155.2-103.6l-119.2 93.4zM273 796.6c28 50.8 58 67.4 79 67.4h425.4c-6-9-11.4-18.6-16.4-28.2-36-69-57-160.8-57-259.8 0-44 4.2-86.6 12-126.6l-443 347.2zM921.2 288.6l-60.4 47.4c-5 7.2-10 15.4-14.8 24.8-27.6 52.6-46 128.6-46 215.4s18.4 162.6 46 215.4c28.8 54.6 60.2 72.4 82 72.4s53.2-17.8 82-72.6c27.6-52.6 46-128.6 46-215.4s-18.4-162.6-46-215.4c-28.8-55-60.2-72.6-82-72.6-2.2 0-4.4 0.2-6.8 0.6zM1011.4 218c16.4 10.8 31.2 24.4 44.6 40v-75l-44.6 35zM1054.8-63l-120.6 95h-374.2c-8.8 0-16 7.2-16 16v80h-96v-80c0-61.8 50.2-112 112-112h480c5 0 10 0.4 14.8 1zM609.2 288h-257.2c-21.8 0-53.2 17.8-82 72.6-27.6 52.6-46 128.6-46 215.4 0 5.2 0 10.2 0.2 15.4l-90.6 71.4c-3.6-28-5.6-57.2-5.6-86.8 0-99 21-190.8 57-259.8 35-66.8 91.6-124.2 167-124.2h379l-121.8 96zM976 576c0 53-21.4 96-48 96s-48-43-48-96 21.4-96 48-96 48 43 48 96z" />
<glyph unicode="&#xe97a;" glyph-name="feather" d="M623.8 627.8l-399.8-400v72c0 110.4 43.8 216.2 121.8 294.2l207.6 207.6c40 40 94.2 62.4 150.6 62.4s110.6-22.4 150.6-62.4l11-11c40-40 62.4-94.2 62.4-150.6 0-33.6-8-66.6-22.8-96h-229.4l15.8 15.8c18.8 18.8 18.8 49.2 0 67.8s-49.2 18.8-67.8 0zM579.8 448h244.4l-96-96h-244.4l96 96zM629.6 256c-74.4-61.8-168.4-96-265.8-96h-72l96 96h242zM128 300v-168l-114-114c-18.8-18.8-18.8-49.2 0-67.8s49.2-18.8 67.8 0l114 114h168c135.8 0 266 54 362 150l207.6 207.2c58 58 90.6 136.6 90.6 218.6s-32.6 160.6-90.6 218.6l-11 11c-57.8 57.8-136.4 90.4-218.4 90.4s-160.6-32.6-218.6-90.6l-207.4-207.4c-96-96-150-226.2-150-362z" />
<glyph unicode="&#xe97b;" glyph-name="utensils" horiz-adv-x="896" d="M143.8 906.6c3 26.4-16 50-42.4 53s-50-16-53-42.4l-32-288-0.4-2.6v-34.6c0-97.2 78.8-176 176-176h16v-432c0-26.6 21.4-48 48-48s48 21.4 48 48v432h16c97.2 0 176 78.8 176 176v34.6l-0.2 2.6-32 288c-3 26.4-26.8 45.4-53.2 42.6s-45.4-26.6-42.4-53l31.8-285.4v-29.4c0-44.2-35.8-80-80-80h-128c-44.2 0-80 35.8-80 80v29.4l31.8 285.2zM304 912c0 26.6-21.4 48-48 48s-48-21.4-48-48v-288c0-26.6 21.4-48 48-48s48 21.4 48 48v288zM672 608c0 115.4 43.4 177.2 82.8 211.4 15.4 13.2 31 23.2 45.2 30.4v-497.8h-96c-17.6 0-32 14.4-32 32v224zM800 256v-272c0-26.6 21.4-48 48-48s48 21.4 48 48v912c0 35.4-28.6 64-64 64-32 0-256-64-256-352v-224c0-70.6 57.4-128 128-128h96z" />
<glyph unicode="&#xe97c;" glyph-name="glass-half" horiz-adv-x="768" d="M48 960c-13.4 0-26.2-5.6-35.4-15.6s-13.6-23.2-12.4-36.6l72.4-840.2c6.4-74.4 68.8-131.6 143.4-131.6h336c74.8 0 137 57.2 143.4 131.6l72.4 840.2c1.2 13.4-3.4 26.6-12.4 36.6s-22 15.6-35.4 15.6h-672zM133.4 480l-33 384h567.2l-33-384h-501.2zM141.6 384h484.8l-26.6-308.2c-2.2-24.8-23-43.8-47.8-43.8h-336c-25 0-45.6 19-47.8 43.8l-26.6 308.2z" />
<glyph unicode="&#xe97d;" glyph-name="person-circle-check" horiz-adv-x="1152" d="M224 864c0 53.019 42.981 96 96 96s96-42.981 96-96v0c0-53.019-42.981-96-96-96s-96 42.981-96 96v0zM288 607.8v-255.8h64v255.8c-1.4 0-3 0.2-4.6 0.2h-54.8c-1.6 0-3 0-4.6-0.2zM288 256v-272c0-26.6-21.4-48-48-48s-48 21.4-48 48v528.8l-86.2-152.4c-13-23-42.4-31.2-65.4-18.2s-31.2 42.4-18.2 65.4l117.2 207c31.2 55.2 89.8 89.4 153.2 89.4h55c63.4 0 122-34.2 153.2-89.4l93.2-164.8c-23.4-28-42.6-59.8-56.6-94.2-1.2 1.6-2.2 3.2-3.2 4.8l-86.2 152.4v-528.8c0-26.6-21.4-48-48-48s-48 21.4-48 48v272h-64zM576 224c0 159.058 128.942 288 288 288s288-128.942 288-288v0c0-159.058-128.942-288-288-288s-288 128.942-288 288v0zM998.6 310.6c-12.4 12.4-32.8 12.4-45.2 0l-121.4-121.4-57.4 57.4c-12.4 12.4-32.8 12.4-45.2 0s-12.4-32.8 0-45.2l80-80c12.4-12.4 32.8-12.4 45.2 0l144 144c12.4 12.4 12.4 32.8 0 45.2z" />
</font>
</defs>
</svg>
